Континуум / Continuum (Сезон 3 / полный / серии: 13 из 13) (Пэт Уильямс / Pat Williams ...) [2014г., фантастика, триллер, ..., WEB-DLRip] MVO (LostFilm)

 

Создавать темы 26-Июн-2014 06:02

Континуум / Continuum
«Будущее в ее руках»
- Русское название: Континуум
Оригинальное название: Continuum
Страна: Канада
Год выпуска: 2014
Жанр: фантастика, триллер, ...-Релиз: Студия LostFilm
Перевод: Профессиональный (многоголосый, закадровый)-Премьера (мир): 27 мая 2012, ...
Премьера (РФ): 23 ноября 2013-Режиссер: Пэт Уильямс / Pat Williams, Дэвид Фрэйзи / David Frazee, Майк Рол / Mike Rohl ...
В главных ролях: Рэйчел Николс, Эрик Кнудсен, Виктор Уэбстер, Стивен Лобо, Дженнифер Спенс, Тони Амендола, Ричард Хэрмон, Лекса Дойг, Омари Ньютон, Брайан Маркинсон, ...-Описание фильма:
Группа террористов-фанатиков, избежавшая казни в 2077 году, перемещается в наше время вместе с преследующим их полицейским Кирой Камерон.-Сезон: 3
Серии: 13 из 13 серий
Продолжительность: ~ 00:43:00 мин серия-Качество видео: WEB-DLRip
Формат: AVI
Видеокодек: XviD
Аудиокодек: Mp3
Видео: MPEG-4 Visual at 1184 Кбит/сек: 720 x 400 (1.800) at 23.976 fps, 0.17 Бит/Пиксели
Аудио Rus: MPEG Audio at 192 Кбит/сек: 2 канала, 48,0 КГц |LostFilm|
- --

Список серий:

  • Минута за минутой (Minute by Minute)
  • Доброволец (Minute Man)
  • Минута на победу (Minute to Win It)
  • Минута решает всё (A Minute Changes Everything)
  • 30 минут до эфира (30 Minutes to Air)
  • Лишняя минута (Wasted Minute)
  • Минуты на исходе (Waning Minute)
  • Минуты наши к вечности спешат (So Do Our Minutes Hasten)
  • Минута молчания (Minute of Silence)
  • Минуты открытий (Revolutions Per Minute)
  • 3 минуты до полуночи (3 Minutes to Midnight)
  • Предсмертные минуты (The Dying Minutes)
  • Последняя минута (Last Minute)
-

MediaInfo:

Общее
Полное имя                               : E:\_Сериалы\000\Континуум\Continuum-3(LostFilm)\Continuum.S03E01.rus.LostFilm.TV.avi
Формат                                   : AVI
Формат/Информация                        : Audio Video Interleave
Размер файла                             : 434 Мбайт
Продолжительность                        : 43 м.
Режим общего битрейта                    : Переменный
Общий поток                              : 1383 Кбит/сек
Программа кодирования                    : Nandub v1.0rc2
Библиотека кодирования                   : Nandub build 1853/release
Видео
Идентификатор                            : 0
Формат                                   : MPEG-4 Visual
Профиль формата                          : [email protected]
Параметр BVOP формата                    : Нет
Параметр QPel формата                    : Нет
Параметр GMC формата                     : Без точки перехода
Параметр матрицы формата                 : Default (H.263)
Идентификатор кодека                     : XVID
Идентификатор кодека/Подсказка           : XviD
Продолжительность                        : 43 м.
Битрейт                                  : 1184 Кбит/сек
Ширина                                   : 720 пикселей
Высота                                   : 400 пикселей
Соотношение сторон                       : 16:9
Частота кадров                           : 23,976 кадра/сек
Цветовое пространство                    : YUV
Субдискретизация насыщенности            : 4:2:0
Битовая глубина                          : 8 бит
Тип развёртки                            : Прогрессивная
Метод сжатия                             : С потерями
Бит/(Пиксели*Кадры)                      : 0.171
Размер потока                            : 372 Мбайт (86%)
Библиотека кодирования                   : XviD 1.2.1 (UTC 2008-12-04)
Аудио
Идентификатор                            : 1
Формат                                   : MPEG Audio
Версия формата                           : Version 1
Профиль формата                          : Layer 3
Режим                                    : Joint stereo
Идентификатор кодека                     : 55
Идентификатор кодека/Подсказка           : MP3
Продолжительность                        : 43 м.
Вид битрейта                             : Переменный
Битрейт                                  : 192 Кбит/сек
Каналы                                   : 2 канала
Частота                                  : 48,0 КГц
Метод сжатия                             : С потерями
Размер потока                            : 58,6 Мбайт (13%)
Выравнивание                             : Соединение по промежуткам
Продолжительность промежутка             : 24  мс. (0,58 видеокадр)
Время предзагрузки промежутка            : 539  мс.
Библиотека кодирования                   : LAME3.97b
Настройки программы                      : -m j -V 4 -q 3 -lowpass 18.6 --abr 192
-

Скриншот c названием фильма

-Скриншоты:
-

Еще

-Добавлена тринадцатая, заключительная, серия третьего сезона
Яндекс.Метрика
Рейтинг@Mail.ru