[ Сегодня на трекере фрилич! Идет свободное скачивание без начисления Download ]

Континуум / Continuum (Сезон 3 / полный / серии: 13 из 13) (Пэт Уильямс / Pat Williams ...) [2014г., фантастика, триллер, ..., WEB-DLRip] MVO (NewStudio) + Original (Eng)

 

Создавать темы 25-Июн-2014 18:45

Континуум / Continuum
«Будущее в ее руках»
- Русское название: Континуум
Оригинальное название: Continuum
Страна: Канада
Год выпуска: 2014
Жанр: фантастика, триллер, ...-Релиз: Студия NewStudio
Перевод: Профессиональный (двухголосый, закадровый)
Оригинальный аудиопоток: английский-Автор перевода: Григорий Сенин
Озвучка: Ирина Воронова, Константин Погодаев
Постер: Vortex-Премьера (мир): 27 мая 2012, ...
Премьера (РФ): 23 ноября 2013-Режиссер: Пэт Уильямс / Pat Williams, Дэвид Фрэйзи / David Frazee, Майк Рол / Mike Rohl ...
В главных ролях: Рэйчел Николс, Эрик Кнудсен, Виктор Уэбстер, Стивен Лобо, Дженнифер Спенс, Тони Амендола, Ричард Хэрмон, Лекса Дойг, Омари Ньютон, Брайан Маркинсон, ...-Описание фильма:
Группа террористов-фанатиков, избежавшая казни в 2077 году, перемещается в наше время вместе с преследующим их полицейским Кирой Камерон.-Сезон: 3
Серии: 13 из 13 серий
Продолжительность: ~ 00:44:00 мин серия-Качество видео: WEB-DLRip
Формат: AVI
Видеокодек: XviD
Аудиокодек: Mp3
Видео: MPEG-4 Visual at 1477 Кбит/сек: 720 x 400 (1.800) at 23.976 fps, 0.214 Бит/Пиксели
Аудио Rus: MPEG Audio at 128 Кбит/сек: 2 канала, 48,0 КГц |NewStudio|
Аудио Eng: MPEG Audio at 128 Кбит/сек: 2 канала, 48,0 КГц |Original|
-

Список серий:

  • Минута за минутой (Minute by Minute)
  • Доброволец (Minute Man)
  • Минута на победу (Minute to Win It)
  • Минута решает всё (A Minute Changes Everything)
  • Тридцать минут до эфира (30 Minutes to Air)
  • Минута впустую (Wasted Minute)
  • Минуты упадка (Waning Minute)
  • Минуты наши к вечности спешат (So Do Our Minutes Hasten)
  • Минута молчания (Minute of Silence)
  • Минуты открытий (Revolutions Per Minute)
  • Без трёх минут полночь (3 Minutes to Midnight)
  • Предсмертные минуты (The Dying Minutes)
  • Последняя минута (Last Minute)
-

MediaInfo:

Общее
Полное имя                               : E:\_Сериалы\000\Континуум\Continuum-3(NewStudio)\Continuum.s03e01.WEBDLRip.NewStudio.TV.avi
Формат                                   : AVI
Формат/Информация                        : Audio Video Interleave
Размер файла                             : 550 Мбайт
Продолжительность                        : 44 м.
Общий поток                              : 1747 Кбит/сек
Программа кодирования                    : VirtualDubMod 1.5.10.2 (build 2540/release)
Библиотека кодирования                   : VirtualDubMod build 2540/release
Видео
Идентификатор                            : 0
Формат                                   : MPEG-4 Visual
Профиль формата                          : Advanced [email protected]
Параметр BVOP формата                    : 2
Параметр QPel формата                    : Нет
Параметр GMC формата                     : Без точки перехода
Параметр матрицы формата                 : Default (MPEG)
Идентификатор кодека                     : XVID
Идентификатор кодека/Подсказка           : XviD
Продолжительность                        : 44 м.
Битрейт                                  : 1477 Кбит/сек
Ширина                                   : 720 пикселей
Высота                                   : 400 пикселей
Соотношение сторон                       : 16:9
Частота кадров                           : 23,976 кадра/сек
Цветовое пространство                    : YUV
Субдискретизация насыщенности            : 4:2:0
Битовая глубина                          : 8 бит
Тип развёртки                            : Прогрессивная
Метод сжатия                             : С потерями
Бит/(Пиксели*Кадры)                      : 0.214
Размер потока                            : 465 Мбайт (85%)
Библиотека кодирования                   : XviD 64
Аудио #1
Идентификатор                            : 1
Формат                                   : MPEG Audio
Версия формата                           : Version 1
Профиль формата                          : Layer 3
Режим                                    : Joint stereo
Расширение режима                        : MS Stereo
Идентификатор кодека                     : 55
Идентификатор кодека/Подсказка           : MP3
Продолжительность                        : 44 м.
Вид битрейта                             : Постоянный
Битрейт                                  : 128 Кбит/сек
Каналы                                   : 2 канала
Частота                                  : 48,0 КГц
Метод сжатия                             : С потерями
Размер потока                            : 40,3 Мбайт (7%)
Выравнивание                             : Соединение по промежуткам
Продолжительность промежутка             : 42  мс. (1,00 видеокадр)
Время предзагрузки промежутка            : 504  мс.
Аудио #2
Идентификатор                            : 2
Формат                                   : MPEG Audio
Версия формата                           : Version 1
Профиль формата                          : Layer 3
Режим                                    : Joint stereo
Расширение режима                        : MS Stereo
Идентификатор кодека                     : 55
Идентификатор кодека/Подсказка           : MP3
Продолжительность                        : 44 м.
Вид битрейта                             : Постоянный
Битрейт                                  : 128 Кбит/сек
Каналы                                   : 2 канала
Частота                                  : 48,0 КГц
Метод сжатия                             : С потерями
Размер потока                            : 40,3 Мбайт (7%)
Выравнивание                             : Соединение по промежуткам
Продолжительность промежутка             : 42  мс. (1,00 видеокадр)
Время предзагрузки промежутка            : 504  мс.
Библиотека кодирования                   : LAME3.99r
Настройки программы                      : -m j -V 4 -q 2 -lowpass 17 -b 128
-

Скриншот c названием фильма

-Скриншоты:
-

Еще

-Добавлена тринадцатая, заключительная, серия третьего сезона
Яндекс.Метрика
Рейтинг@Mail.ru