(Progressive Trance) Markus Schulz - Coldharbour Sessions 2004, Miami'05 & Ibiza'06 (Armada Music, Moist Music), 2004-2006, FLAC (image+.cue) lossless

 

Создавать темы 25-Июн-2014 17:20

Markus Schulz - Coldharbour Sessions 2004, Miami'05 & Ibiza'06- Жанр: Progressive Trance
Страна-производитель диска: Holland, US
Год издания диска: 2004-2006
Издатель (лейбл): Armada Music, Moist Music (under exclusive license from Armada Music)
Номер по каталогу: ARMA005 (Coldharbour Sessions 2004), MM-1158-2 (Miami'05) & MM-1172-2 (Ibiza'06)
Страна: US
Аудио кодек: FLAC (*.flac)
Тип рипа: image+.cue
Битрейт аудио: lossless
Продолжительность: 7:43:15
Источник (релизер): masterus7 (собственный диск)
Наличие сканов в содержимом раздачи: да
Треклист:

2004 - Markus Schulz - Coldharbour Sessions 2004

CD1 - 1:19:16
01. Markus Schulz - Intro 1:36
02. Christian Rush - Numb 6:52
03. Taxi - Glistening 5:53
04. Oceanlab - Satellite (Markus Schulz Coldharbour Remix) 9:42
05. Pinkbox Special - Simple 7:31
06. Mark Otten - Tranquility (Markus Schulz Coldharbour Remix) 7:31
07. San Mehat - Morning Star (San's Sho-Road Mix) 6:47
08. Mind - Afterlife 6:46
09. Airwave - Lady Blue (Markus Schulz Coldharbour Remix) 10:08
10. Miro - By Your Side (Sonorous Remix) 6:46
11. Markus Schulz pres. Elevation - Somewhere (Clear Blue) (Markus Schulz Coldharbour Mix) 9:45
CD2 - 1:17:38
01. Whirlpool - Under The Sun (Markus Schulz Intro Remix) 6:42
02. Austin Leeds & Kobbe - Fusing Love (Markus Schulz & Austin Leeds Remix) 7:39
03. Thomas Penton - Dominica 5:59
04. Andrew K. presents Junk Science - Jataka 7:25
05. Ozgur Can - Sometimes 4:47
06. Andain - Beautiful Things (Markus Schulz Shadows Of Coldharbour Mix) 9:42
07. A. Matsumoto & DJ Yoshi - Dreamer (Luke Chable Remix) 7:40
08. Motorcycle - As The Rush Comes (Perry O'Neil Instrumental Mix) 10:32
09. Peter Martin presents Anthanasia - Perfect Wave 8:36
10. George Hales - Autumn (Alucard vs. Markus Schulz Remix) 5:47
11. Markus Schulz - Outro 2:50

Лог создания рипа EAC

CD1
Exact Audio Copy V0.99 prebeta 5 from 4. May 2009
EAC extraction logfile from 28. November 2010, 13:08
Various / Markus Schulz - Coldharbour Sessions 2004 CD1
Used drive  : TSSTcorpCDDVDW TS-L633P   Adapter: 0  ID: 1
Read mode               : Secure
Utilize accurate stream : Yes
Defeat audio cache      : Yes
Make use of C2 pointers : No
Read offset correction                      : 6
Overread into Lead-In and Lead-Out          : No
Fill up missing offset samples with silence : Yes
Delete leading and trailing silent blocks   : No
Null samples used in CRC calculations       : Yes
Used interface                              : Native Win32 interface for Win NT & 2000
Used output format              : User Defined Encoder
Selected bitrate                : 896 kBit/s
Quality                         : High
Add ID3 tag                     : No
Command line compressor         : C:\Program Files\Exact Audio Copy\Flac\flac.exe
Additional command line options : -8 -V -T "ARTIST=%a" -T "TITLE=%t" -T "ALBUM=%g" -T "DATE=%y" -T "TRACKNUMBER=%n" -T "GENRE=%m" -T "COMMENT=ripped by masterus" %s
TOC of the extracted CD
     Track |   Start  |  Length  | Start sector | End sector
    ---------------------------------------------------------
        1  |  0:00.00 |  1:35.59 |         0    |     7183
        2  |  1:35.59 |  6:52.16 |      7184    |    38099
        3  |  8:28.00 |  5:52.65 |     38100    |    64564
        4  | 14:20.65 |  9:42.00 |     64565    |   108214
        5  | 24:02.65 |  7:30.70 |    108215    |   142034
        6  | 31:33.60 |  7:31.05 |    142035    |   175864
        7  | 39:04.65 |  6:46.68 |    175865    |   206382
        8  | 45:51.58 |  6:45.49 |    206383    |   236806
        9  | 52:37.32 | 10:08.13 |    236807    |   282419
       10  | 62:45.45 |  6:45.57 |    282420    |   312851
       11  | 69:31.27 |  9:44.38 |    312852    |   356689
Range status and errors
Selected range
     Filename C:\Users\Master\EAC images\Markus Schulz - Coldharbour Sessions 2004 CD1.wav
     Peak level 96.6 %
     Range quality 100.0 %
     Test CRC EEEB2D59
     Copy CRC EEEB2D59
     Copy OK
No errors occurred
AccurateRip summary
Track  1  accurately ripped (confidence 3)  [20F70A6D]
Track  2  accurately ripped (confidence 3)  [14FB48B4]
Track  3  accurately ripped (confidence 3)  [5F5E62D9]
Track  4  accurately ripped (confidence 3)  [EDFAEA47]
Track  5  accurately ripped (confidence 3)  [BC1DBA14]
Track  6  accurately ripped (confidence 3)  [484A3CD2]
Track  7  accurately ripped (confidence 3)  [0DC53F30]
Track  8  accurately ripped (confidence 3)  [F11ABBE1]
Track  9  accurately ripped (confidence 3)  [EECE8FA8]
Track 10  accurately ripped (confidence 3)  [AFC402F2]
Track 11  accurately ripped (confidence 3)  [7165CD17]
All tracks accurately ripped
End of status report
CD2
Exact Audio Copy V0.99 prebeta 5 from 4. May 2009
EAC extraction logfile from 28. November 2010, 14:16
Various / Markus Schulz - Coldharbour Sessions 2004 CD2
Used drive  : TSSTcorpCDDVDW TS-L633P   Adapter: 0  ID: 1
Read mode               : Secure
Utilize accurate stream : Yes
Defeat audio cache      : Yes
Make use of C2 pointers : No
Read offset correction                      : 6
Overread into Lead-In and Lead-Out          : No
Fill up missing offset samples with silence : Yes
Delete leading and trailing silent blocks   : No
Null samples used in CRC calculations       : Yes
Used interface                              : Native Win32 interface for Win NT & 2000
Used output format              : User Defined Encoder
Selected bitrate                : 896 kBit/s
Quality                         : High
Add ID3 tag                     : No
Command line compressor         : C:\Program Files\Exact Audio Copy\Flac\flac.exe
Additional command line options : -8 -V -T "ARTIST=%a" -T "TITLE=%t" -T "ALBUM=%g" -T "DATE=%y" -T "TRACKNUMBER=%n" -T "GENRE=%m" -T "COMMENT=ripped by masterus" %s
TOC of the extracted CD
     Track |   Start  |  Length  | Start sector | End sector
    ---------------------------------------------------------
        1  |  0:00.00 |  6:41.43 |         0    |    30117
        2  |  6:41.43 |  7:39.10 |     30118    |    64552
        3  | 14:20.53 |  5:59.04 |     64553    |    91481
        4  | 20:19.57 |  7:25.21 |     91482    |   124877
        5  | 27:45.03 |  4:47.22 |    124878    |   146424
        6  | 32:32.25 |  9:41.66 |    146425    |   190065
        7  | 42:14.16 |  7:39.49 |    190066    |   224539
        8  | 49:53.65 | 10:32.03 |    224540    |   271942
        9  | 60:25.68 |  8:36.02 |    271943    |   310644
       10  | 69:01.70 |  5:46.70 |    310645    |   336664
       11  | 74:48.65 |  2:49.45 |    336665    |   349384
Range status and errors
Selected range
     Filename C:\Users\Master\EAC images\Markus Schulz - Coldharbour Sessions 2004 CD2.wav
     Peak level 96.6 %
     Range quality 100.0 %
     Test CRC AE060D56
     Copy CRC AE060D56
     Copy OK
No errors occurred
AccurateRip summary
Track  1  accurately ripped (confidence 3)  [076E16D9]
Track  2  accurately ripped (confidence 3)  [5E72372A]
Track  3  accurately ripped (confidence 3)  [BD25CACA]
Track  4  accurately ripped (confidence 3)  [88841B65]
Track  5  accurately ripped (confidence 3)  [4861AA4B]
Track  6  accurately ripped (confidence 3)  [F1585885]
Track  7  accurately ripped (confidence 3)  [45DC2229]
Track  8  accurately ripped (confidence 3)  [43E48C68]
Track  9  accurately ripped (confidence 3)  [B0E06A89]
Track 10  accurately ripped (confidence 3)  [A27A0CFC]
Track 11  accurately ripped (confidence 3)  [590829BA]
All tracks accurately ripped
End of status report

2005 - Markus Schulz - Miami'05

CD1 - 1:15:06
01. Hydroid - Blue Tubes (Intro Mix) 6:32
02. Interstate - I Found You (Harry Lemon Remix) 5:21
03. Kalafut & Fygle - '3579 KM' 7:30
04. Hammer & Bennet - Baltic Sea 5:25
05. Fluid In Motion - Soul Dimension 5:19
06. Keo - Close Enough (Noel Sanger Remix) 7:20
07. Jose Amnesia presents Tiffany - Heaven Drops 5:10
08. Lens - Let The Light In 5:11
09. Arenok - Free Yourself 6:46
10. Ave Mea - In The End 7:29
11. Jagermaestro - Quarter Century 6:31
12. Max Graham featuring Jessica Jacobs - I Know You're Gone 6:33
CD2 - 1:15:39
01. Bakke & Ljungqvist - Fanatic 5:51
02. Steve May - Sublimate 4:37
03. Sundawner - Sorrow 4:51
04. Yilmaz Altanhan - Eighties (Original Mix) 7:17
05. Nikola Gala - A Dream Came Through 9:42
06. Attention Deficit - What 9:34
07. Markus Schulz - Electro Hairspray 6:32
08. Jellisimo - Yael 3:53
09. Ozgur Can - Connected (Santiago Nino Remix) 5:05
10. Mike Foyle presents Statica - Space Guitar 6:04
11. Progresia presents Sokaya - A Little Hazy Morning 5:44
12. Hammer & Bennet - Language 6:31

Лог создания рипа EAC

CD1
Exact Audio Copy V0.99 prebeta 5 from 4. May 2009
EAC extraction logfile from 28. November 2010, 0:56
Various / Markus Schulz - Miami'05 CD1
Used drive  : TSSTcorpCDDVDW TS-L633P   Adapter: 0  ID: 1
Read mode               : Secure
Utilize accurate stream : Yes
Defeat audio cache      : Yes
Make use of C2 pointers : No
Read offset correction                      : 6
Overread into Lead-In and Lead-Out          : No
Fill up missing offset samples with silence : Yes
Delete leading and trailing silent blocks   : No
Null samples used in CRC calculations       : Yes
Used interface                              : Native Win32 interface for Win NT & 2000
Used output format              : User Defined Encoder
Selected bitrate                : 896 kBit/s
Quality                         : High
Add ID3 tag                     : No
Command line compressor         : C:\Program Files\Exact Audio Copy\Flac\flac.exe
Additional command line options : -8 -V -T "ARTIST=%a" -T "TITLE=%t" -T "ALBUM=%g" -T "DATE=%y" -T "TRACKNUMBER=%n" -T "GENRE=%m" -T "COMMENT=ripped by masterus" %s
TOC of the extracted CD
     Track |   Start  |  Length  | Start sector | End sector
    ---------------------------------------------------------
        1  |  0:00.00 |  6:31.61 |         0    |    29385
        2  |  6:31.61 |  5:20.70 |     29386    |    53455
        3  | 11:52.56 |  7:29.42 |     53456    |    87172
        4  | 19:22.23 |  5:24.44 |     87173    |   111516
        5  | 24:46.67 |  5:19.07 |    111517    |   135448
        6  | 30:05.74 |  7:20.20 |    135449    |   168468
        7  | 37:26.19 |  5:10.26 |    168469    |   191744
        8  | 42:36.45 |  5:10.52 |    191745    |   215046
        9  | 47:47.22 |  6:45.45 |    215047    |   245466
       10  | 54:32.67 |  7:29.03 |    245467    |   279144
       11  | 62:01.70 |  6:30.69 |    279145    |   308463
       12  | 68:32.64 |  6:33.16 |    308464    |   337954
Range status and errors
Selected range
     Filename C:\Users\Master\EAC images\Markus Schulz - Miami'05 CD1.wav
     Peak level 96.6 %
     Range quality 100.0 %
     Test CRC F4654178
     Copy CRC F4654178
     Copy OK
No errors occurred
AccurateRip summary
Track  1  accurately ripped (confidence 10)  [C6AFDCF2]
Track  2  accurately ripped (confidence 10)  [EB61FC8C]
Track  3  accurately ripped (confidence 10)  [793B20AD]
Track  4  accurately ripped (confidence 10)  [A2D6BA6E]
Track  5  accurately ripped (confidence 10)  [661F0B4B]
Track  6  accurately ripped (confidence 10)  [7C090005]
Track  7  accurately ripped (confidence 10)  [AB39B3CB]
Track  8  accurately ripped (confidence 10)  [DCFD8624]
Track  9  accurately ripped (confidence 10)  [19D46B1B]
Track 10  accurately ripped (confidence 10)  [D7A1D596]
Track 11  accurately ripped (confidence 10)  [B97F9402]
Track 12  accurately ripped (confidence 8)  [B1A76FEA]
All tracks accurately ripped
End of status report
CD2
Exact Audio Copy V0.99 prebeta 5 from 4. May 2009
EAC extraction logfile from 28. November 2010, 12:05
Various / Markus Schulz - Miami'05 CD2
Used drive  : TSSTcorpCDDVDW TS-L633P   Adapter: 0  ID: 1
Read mode               : Secure
Utilize accurate stream : Yes
Defeat audio cache      : Yes
Make use of C2 pointers : No
Read offset correction                      : 6
Overread into Lead-In and Lead-Out          : No
Fill up missing offset samples with silence : Yes
Delete leading and trailing silent blocks   : No
Null samples used in CRC calculations       : Yes
Used interface                              : Native Win32 interface for Win NT & 2000
Used output format              : User Defined Encoder
Selected bitrate                : 896 kBit/s
Quality                         : High
Add ID3 tag                     : No
Command line compressor         : C:\Program Files\Exact Audio Copy\Flac\flac.exe
Additional command line options : -8 -V -T "ARTIST=%a" -T "TITLE=%t" -T "ALBUM=%g" -T "DATE=%y" -T "TRACKNUMBER=%n" -T "GENRE=%m" -T "COMMENT=ripped by masterus" %s
TOC of the extracted CD
     Track |   Start  |  Length  | Start sector | End sector
    ---------------------------------------------------------
        1  |  0:00.00 |  5:50.50 |         0    |    26299
        2  |  5:50.50 |  4:36.39 |     26300    |    47038
        3  | 10:27.14 |  4:51.07 |     47039    |    68870
        4  | 15:18.21 |  7:16.44 |     68871    |   101614
        5  | 22:34.65 |  9:41.44 |    101615    |   145233
        6  | 32:16.34 |  9:34.11 |    145234    |   188294
        7  | 41:50.45 |  6:32.23 |    188295    |   217717
        8  | 48:22.68 |  3:52.45 |    217718    |   235162
        9  | 52:15.38 |  5:04.72 |    235163    |   258034
       10  | 57:20.35 |  6:03.51 |    258035    |   285310
       11  | 63:24.11 |  5:44.13 |    285311    |   311123
       12  | 69:08.24 |  6:31.11 |    311124    |   340459
Range status and errors
Selected range
     Filename C:\Users\Master\EAC images\Markus Schulz - Miami'05 CD2.wav
     Peak level 96.6 %
     Range quality 100.0 %
     Test CRC 5BB179CE
     Copy CRC 5BB179CE
     Copy OK
No errors occurred
AccurateRip summary
Track  1  accurately ripped (confidence 8)  [9B3544D5]
Track  2  accurately ripped (confidence 8)  [489320CA]
Track  3  accurately ripped (confidence 8)  [9571CA37]
Track  4  accurately ripped (confidence 8)  [10C71DC6]
Track  5  accurately ripped (confidence 8)  [B7D512AE]
Track  6  accurately ripped (confidence 8)  [E5B3446B]
Track  7  accurately ripped (confidence 8)  [6AA41AD4]
Track  8  accurately ripped (confidence 8)  [86AC99FB]
Track  9  accurately ripped (confidence 8)  [CDFAEBB4]
Track 10  accurately ripped (confidence 8)  [A5CFBBBE]
Track 11  accurately ripped (confidence 8)  [34BA07AA]
Track 12  accurately ripped (confidence 6)  [2CA1E625]
All tracks accurately ripped
End of status report

2006 - Markus Schulz - Ibiza'06

CD1 - 1:18:15
01. Ohmna - People Get Lost 7:16
02. Benya - Mimas 5:30
03. Jose Amnesia feat. Jennifer Rene - Louder 6:52
04. Joost Van Der Vleuten - New Horizon 4:14
05. Lens - Dusk Till Dawn (Alex Stealthy Remix) 5:54
06. Progresia - The Shelter 4:25
07. Francis Blaid - Mystery (Allende Remix) 3:42
08. Niklas Harding & Funabashi - Addictive 7:12
09. Alex Monakhov - Feel Lonely 4:29
10. Benz & MD - Turning The Curve (Original Mix) 5:11
11. Nick Thompson - Strategos 6:24
12. 4Mal & Matthew Adams feat. Corey Andrew - Technology & Computer (Matthew Adams Dub Mix) 5:37
13. Chuck Luis - Collision 5:24
14. DJ Remy - Wink 6:04
CD2 - 1:17:21
01. Ormatie - Glossow (Original Mix) 5:25
02. Joonas Hahmo - The Fusion (Hawk Remix) 6:19
03. Perry O'Neil - South-West Saga 5:05
04. Baltic Sound - Glimmer (Micah & Joel Armstrong's Ruhnsong Remix) 4:36
05. Andy Moor vs. Orkidea - YearZero 6:59
06. Roland Klinkenberg - What's The Point 7:10
07. Kenneth Thomas - Achems Razor 4:03
08. Nick Thompson - Once Upon A Time 6:15
09. Markus Schulz feat. Anita Kelsey - First Time (Funabashi Remix) 5:51
10. Algarve - Greasepaint 4:30
11. Ambrosial - Sunshift (Arthur Schmidt Of Basic Perspective Remix) 6:50
12. Kyau vs. Albert - Kiksu 3:03
13. Sassot - Where It All Begun 6:08
14. Breakfast - The Air Between 5:07

Лог создания рипа EAC

CD1
Exact Audio Copy V0.99 prebeta 5 from 4. May 2009
EAC extraction logfile from 27. November 2010, 13:32
Various / Markus Schulz - Ibiza'06 CD1
Used drive  : TSSTcorpCDDVDW TS-L633P   Adapter: 0  ID: 1
Read mode               : Secure
Utilize accurate stream : Yes
Defeat audio cache      : Yes
Make use of C2 pointers : No
Read offset correction                      : 6
Overread into Lead-In and Lead-Out          : No
Fill up missing offset samples with silence : Yes
Delete leading and trailing silent blocks   : No
Null samples used in CRC calculations       : Yes
Used interface                              : Native Win32 interface for Win NT & 2000
Used output format              : User Defined Encoder
Selected bitrate                : 896 kBit/s
Quality                         : High
Add ID3 tag                     : No
Command line compressor         : C:\Program Files\Exact Audio Copy\Flac\flac.exe
Additional command line options : -8 -V -T "ARTIST=%a" -T "TITLE=%t" -T "ALBUM=%g" -T "DATE=%y" -T "TRACKNUMBER=%n" -T "GENRE=%m" -T "COMMENT=ripped by masterus" %s
TOC of the extracted CD
     Track |   Start  |  Length  | Start sector | End sector
    ---------------------------------------------------------
        1  |  0:00.00 |  7:16.37 |         0    |    32736
        2  |  7:16.37 |  5:29.52 |     32737    |    57463
        3  | 12:46.14 |  6:52.12 |     57464    |    88375
        4  | 19:38.26 |  4:14.28 |     88376    |   107453
        5  | 23:52.54 |  5:53.70 |    107454    |   133998
        6  | 29:46.49 |  4:25.00 |    133999    |   153873
        7  | 34:11.49 |  3:41.44 |    153874    |   170492
        8  | 37:53.18 |  7:12.25 |    170493    |   202917
        9  | 45:05.43 |  4:28.56 |    202918    |   223073
       10  | 49:34.24 |  5:10.59 |    223074    |   246382
       11  | 54:45.08 |  6:24.08 |    246383    |   275190
       12  | 61:09.16 |  5:37.36 |    275191    |   300501
       13  | 66:46.52 |  5:24.27 |    300502    |   324828
       14  | 72:11.04 |  6:04.00 |    324829    |   352128
Range status and errors
Selected range
     Filename C:\Users\Master\EAC images\Markus Schulz - Ibiza'06 CD1.wav
     Peak level 96.6 %
     Range quality 99.9 %
     Test CRC 59A375BD
     Copy CRC 59A375BD
     Copy OK
No errors occurred
AccurateRip summary
Track  1  accurately ripped (confidence 2)  [3855FBF4]
Track  2  accurately ripped (confidence 2)  [3B1904EE]
Track  3  accurately ripped (confidence 2)  [4B250A73]
Track  4  accurately ripped (confidence 2)  [E128BBE5]
Track  5  accurately ripped (confidence 2)  [4CD4633A]
Track  6  accurately ripped (confidence 2)  [DE19B0FC]
Track  7  accurately ripped (confidence 2)  [1C030C71]
Track  8  accurately ripped (confidence 2)  [868D90F2]
Track  9  accurately ripped (confidence 2)  [9268E19E]
Track 10  accurately ripped (confidence 2)  [561A2A20]
Track 11  accurately ripped (confidence 2)  [21226BEE]
Track 12  accurately ripped (confidence 2)  [91564C97]
Track 13  accurately ripped (confidence 2)  [110E5CD9]
Track 14  accurately ripped (confidence 2)  [BE4FB856]
All tracks accurately ripped
End of status report
CD2
Exact Audio Copy V0.99 prebeta 5 from 4. May 2009
EAC extraction logfile from 27. November 2010, 14:33
Various / Markus Schulz - Ibiza'06 CD2
Used drive  : TSSTcorpCDDVDW TS-L633P   Adapter: 0  ID: 1
Read mode               : Secure
Utilize accurate stream : Yes
Defeat audio cache      : Yes
Make use of C2 pointers : No
Read offset correction                      : 6
Overread into Lead-In and Lead-Out          : No
Fill up missing offset samples with silence : Yes
Delete leading and trailing silent blocks   : No
Null samples used in CRC calculations       : Yes
Used interface                              : Native Win32 interface for Win NT & 2000
Used output format              : User Defined Encoder
Selected bitrate                : 896 kBit/s
Quality                         : High
Add ID3 tag                     : No
Command line compressor         : C:\Program Files\Exact Audio Copy\Flac\flac.exe
Additional command line options : -8 -V -T "ARTIST=%a" -T "TITLE=%t" -T "ALBUM=%g" -T "DATE=%y" -T "TRACKNUMBER=%n" -T "GENRE=%m" -T "COMMENT=ripped by masterus" %s
TOC of the extracted CD
     Track |   Start  |  Length  | Start sector | End sector
    ---------------------------------------------------------
        1  |  0:00.00 |  5:24.51 |         0    |    24350
        2  |  5:24.51 |  6:18.52 |     24351    |    52752
        3  | 11:43.28 |  5:05.24 |     52753    |    75651
        4  | 16:48.52 |  4:36.10 |     75652    |    96361
        5  | 21:24.62 |  6:58.65 |     96362    |   127776
        6  | 28:23.52 |  7:09.73 |    127777    |   160024
        7  | 35:33.50 |  4:03.09 |    160025    |   178258
        8  | 39:36.59 |  6:14.42 |    178259    |   206350
        9  | 45:51.26 |  5:50.38 |    206351    |   232638
       10  | 51:41.64 |  4:30.16 |    232639    |   252904
       11  | 56:12.05 |  6:49.47 |    252905    |   283626
       12  | 63:01.52 |  3:03.30 |    283627    |   297381
       13  | 66:05.07 |  6:07.55 |    297382    |   324961
       14  | 72:12.62 |  5:07.20 |    324962    |   348006
Range status and errors
Selected range
     Filename C:\Users\Master\EAC images\Markus Schulz - Ibiza'06 CD2.wav
     Peak level 96.6 %
     Range quality 99.9 %
     Test CRC 64BD2079
     Copy CRC 64BD2079
     Copy OK
No errors occurred
AccurateRip summary
Track  1  accurately ripped (confidence 10)  [1C43BF03]
Track  2  accurately ripped (confidence 10)  [8939CC6F]
Track  3  accurately ripped (confidence 10)  [1C918E9E]
Track  4  accurately ripped (confidence 10)  [164E2E86]
Track  5  accurately ripped (confidence 10)  [AC681B9D]
Track  6  accurately ripped (confidence 10)  [D5728DF7]
Track  7  accurately ripped (confidence 10)  [F51D6692]
Track  8  accurately ripped (confidence 10)  [3EA51776]
Track  9  accurately ripped (confidence 10)  [7F086432]
Track 10  accurately ripped (confidence 10)  [BD20D593]
Track 11  accurately ripped (confidence 10)  [CC056F1F]
Track 12  accurately ripped (confidence 10)  [A4099523]
Track 13  accurately ripped (confidence 10)  [2A99652C]
Track 14  accurately ripped (confidence 9)  [D5A1DA4D]
All tracks accurately ripped
End of status report
Яндекс.Метрика
Рейтинг@Mail.ru