Танцуй отсюда! / Cuban Fury (Джеймс Гриффитс / James Griffiths) [2013 г., комедия, BDRip-AVC] Dub (лицензия R5) + Original (Eng) + Sub (Rus, Eng) [Jolly Roger]

 

Создавать темы 25-Июн-2014 07:49

-Танцуй отсюда! / Cuban Fury- Год выпуска: 2013 г.
Производство: Великобритания
Жанр: комедия
Продолжительность: 01:37:53
Перевод: Профессиональный (полное дублирование) (лицензия R5)
Оригинальный аудиопоток: английский
Режиссер: Джеймс Гриффитс / James Griffiths
В ролях: Ник Фрост, Рашида Джонс, Крис О’Дауд, Иэн МакШейн, Бен Рэдклифф, Isabella Steinbarth, Брэндон Робинсон, Луис Кайриаку, Киран Гаффни, Стив Орам
Описание: Чтобы завоевать сердце прекрасной начальницы, одному в меру упитанному мужчине предстоит растрясти свои таланты в соревновании на самый зажигательный танец. Однако у него есть соперник, который не постесняется опуститься до очень грязных приемов. Качество видео: BDRip-AVC
Контейнер: MKV
Видео кодек: H.264
Аудио кодек: AC3
Видео: MPEG4 Video (H264) 1056x440 23.976fps 2348 Kbps
Аудио: Dolby AC3 48000Hz 6ch 384 Kbps / Русский
Аудио: Dolby AC3 48000Hz 6ch 448 Kbps / Английский
Субтитры: русские, английские (отключаемые)

Media Info / x.264

Log 2-nd pass

x264 [info]: using SAR=1/1
x264 [info]: using cpu capabilities: MMX2 SSE2Fast SSSE3 Cache64 SlowShuffle
x264 [info]: profile Main, level 4.1
x264 [info]: frame I:1502 Avg QP:13.30 size: 73465
x264 [info]: frame P:35000 Avg QP:16.89 size: 24340
x264 [info]: frame B:104320 Avg QP:19.76 size: 7293
x264 [info]: consecutive B-frames: 3.5% 4.0% 12.7% 30.3% 16.4% 28.0% 3.1% 0.9% 1.0%
x264 [info]: mb I I16..4: 23.7% 0.0% 76.3%
x264 [info]: mb P I16..4: 11.2% 0.0% 0.0% P16..4: 38.4% 27.7% 14.5% 0.0% 0.0% skip: 8.3%
x264 [info]: mb B I16..4: 0.9% 0.0% 0.0% B16..8: 37.0% 11.4% 3.5% direct: 5.7% skip:41.4% L0:42.4% L1:44.3% BI:13.3%
x264 [info]: direct mvs spatial:96.8% temporal:3.2%
x264 [info]: coded y,uvDC,uvAC intra: 63.1% 83.8% 68.1% inter: 20.7% 29.0% 11.8%
x264 [info]: i16 v,h,dc,p: 35% 19% 12% 34%
x264 [info]: i4 v,h,dc,ddl,ddr,vr,hd,vl,hu: 13% 11% 6% 10% 12% 11% 11% 11% 14%
x264 [info]: i8c dc,h,v,p: 38% 21% 23% 18%
x264 [info]: Weighted P-Frames: Y:2.5% UV:1.4%
x264 [info]: ref P L0: 50.8% 10.0% 17.7% 8.3% 6.4% 5.9% 1.0% 0.0%
x264 [info]: ref B L0: 76.9% 12.3% 7.0% 2.5% 1.2%
x264 [info]: ref B L1: 92.0% 8.0%
x264 [info]: kb/s:2346.86
x264 [total]: encoded 140822 frames, 1.48 fps, 2346.86 kb/s
General
Unique ID : 194292855632900718195706548559300768521 (0x922B715F8F8BCA23B1C4BAA53F9BB309)
Complete name : I:\Tancui.otsuda.2013.H.264.BDRip-AVC.JRG.mkv
Format : Matroska
Format version : Version 4 / Version 2
File size : 2.18 GiB
Duration : 1h 37mn
Overall bit rate : 3 181 Kbps
Movie name : The Jolly Roger Release Group by http://Pirat.CA
Encoded date : UTC 2014-06-25 04:19:02
Writing application : mkvmerge v6.9.1 ('Blue Panther') 32bit built on Apr 18 2014 18:15:44
Writing library : libebml v1.3.0 + libmatroska v1.4.1
Video
ID : 1
Format : AVC
Format/Info : Advanced Video Codec
Format profile : [email protected]
Format settings, CABAC : Yes
Format settings, ReFrames : 6 frames
Codec ID : V_MPEG4/ISO/AVC
Duration : 1h 37mn
Bit rate : 2 348 Kbps
Width : 1 056 pixels
Height : 440 pixels
Display aspect ratio : 2.40:1
Frame rate mode : Constant
Frame rate : 23.976 fps
Color space : YUV
Chroma subsampling : 4:2:0
Bit depth : 8 bits
Scan type : Progressive
Bits/(Pixel*Frame) : 0.211
Stream size : 1.56 GiB (72%)
Writing library : x264 core 130 r2273 b3065e6
Encoding settings : cabac=1 / ref=6 / deblock=1:0:0 / analyse=0x1:0x110 / me=umh / subme=9 / psy=1 / psy_rd=1.00:0.00 / mixed_ref=1 / me_range=24 / chroma_me=1 / trellis=2 / 8x8dct=0 / cqm=0 / deadzone=21,11 / fast_pskip=0 / chroma_qp_offset=-2 / threads=3 / lookahead_threads=1 / sliced_threads=0 / nr=0 / decimate=1 / interlaced=0 / bluray_compat=0 / constrained_intra=0 / bframes=8 / b_pyramid=2 / b_adapt=2 / b_bias=0 / direct=3 / weightb=1 / open_gop=0 / weightp=2 / keyint=250 / keyint_min=23 / scenecut=40 / intra_refresh=0 / rc_lookahead=50 / rc=2pass / mbtree=1 / bitrate=2348 / ratetol=1.0 / qcomp=0.60 / qpmin=0 / qpmax=69 / qpstep=4 / cplxblur=20.0 / qblur=0.5 / ip_ratio=1.40 / aq=1:1.00
Default : Yes
Forced : No
Audio #1
ID : 2
Format : AC-3
Format/Info : Audio Coding 3
Mode extension : CM (complete main)
Format settings, Endianness : Big
Codec ID : A_AC3
Duration : 1h 37mn
Bit rate mode : Constant
Bit rate : 384 Kbps
Channel(s) : 6 channels
Channel positions : Front: L C R, Side: L R, LFE
Sampling rate : 48.0 KHz
Bit depth : 16 bits
Compression mode : Lossy
Stream size : 269 MiB (12%)
Language : Russian
Default : Yes
Forced : No
Audio #2
ID : 3
Format : AC-3
Format/Info : Audio Coding 3
Mode extension : CM (complete main)
Format settings, Endianness : Big
Codec ID : A_AC3
Duration : 1h 37mn
Bit rate mode : Constant
Bit rate : 448 Kbps
Channel(s) : 6 channels
Channel positions : Front: L C R, Side: L R, LFE
Sampling rate : 48.0 KHz
Bit depth : 16 bits
Compression mode : Lossy
Stream size : 314 MiB (14%)
Language : English
Default : No
Forced : No
Text #1
ID : 4
Format : UTF-8
Codec ID : S_TEXT/UTF8
Codec ID/Info : UTF-8 Plain Text
Language : Russian
Default : No
Forced : No
Text #2
ID : 5
Format : UTF-8
Codec ID : S_TEXT/UTF8
Codec ID/Info : UTF-8 Plain Text
Language : English
Default : No
Forced : No

Скриншоты

Яндекс.Метрика
Рейтинг@Mail.ru