Осторожно, мошенники! Левые авто (2014.06.24) SATRip

 

Создавать темы 24-Июн-2014 20:52

Осторожно, мошенники! Левые авто (2014.06.24)- Режиссер / Телекомпания: ТВЦ
Русское название: Осторожно, мошенники!
Год выпуска: 2014
Жанр: Документальный
Описание:
Наверное, каждый хоть раз становился жертвой мошенников: будь то игра в "моментальные" лотереи, приобретение ненужных, а иногда и вредных пищевых добавок или общение с вымогателями денег по телефону, для пополнения мобильного счёта бедного чада, оставшегося без связи. В помощь нежелающим наступать на старые грабли зрителям на канале "ТВ Центр" в стартует новая программа "Осторожно, мошенники!", которая еженедельно станет рассказывать о самых распространенных способах отъема денег у граждан и способах борьбы с ними.
В выпуске:
"Левая" машина - по-прежнему хит продаж авторынков и автосалонов. Автолюбителей завлекают скидками, а продают рухлядь и ловко накручивают цены на сомнительный товар! Говорят, что машина "чистая", а подсовывают угнанные и нерастаможенные средства передвижения. Как мошенники обманывают тех, кто решил обзавестись "железным конём"?
Ведущий: Вика Коломыцына, Игорь Швыткин и Олег Лобаков
Продолжительность: ~ 00:26:36
Видеокодек: XVID
Битрейт видео: ~1500 kb/s
Размер кадра: 704 x 416
Качество видео: SATRip
Аудиокодек: MP3, 2ch.
Битрейт аудио: 128 kb/s

MediaInfo

Формат : AVI
Формат/Информация : Audio Video Interleave
Размер файла : 310 Мбайт
Продолжительность : 26 м.
Общий поток : 1631 Кбит/сек
Программа кодирования : VirtualDubMod 1.5.10.3 | www.virtualdub-fr.org || (build 2550/release)
Библиотека кодирования : VirtualDubMod build 2550/release
Видео
Идентификатор : 0
Формат : MPEG-4 Visual
Профиль формата : Advanced [email protected]
Параметр BVOP формата : 2
Параметр QPel формата : Нет
Параметр GMC формата : Без точки перехода
Параметр матрицы формата : Default (MPEG)
Идентификатор кодека : XVID
Идентификатор кодека/Подсказка : XviD
Продолжительность : 26 м.
Битрейт : 1493 Кбит/сек
Ширина : 704 пикселя
Высота : 416 пикселей
Соотношение сторон : 1,692
Частота кадров : 25,000 кадров/сек
Цветовое пространство : YUV
Субдискретизация насыщенности : 4:2:0
Битовая глубина : 8 бит
Тип развёртки : Прогрессивная
Метод сжатия : С потерями
Бит/(Пиксели*Кадры) : 0.204
Размер потока : 284 Мбайт (92%)
Библиотека кодирования : XviD 1.2.1 (UTC 2008-12-04)
Аудио
Идентификатор : 1
Формат : MPEG Audio
Версия формата : Version 1
Профиль формата : Layer 3
Идентификатор кодека : 55
Идентификатор кодека/Подсказка : MP3
Продолжительность : 26 м.
Вид битрейта : Постоянный
Битрейт : 128 Кбит/сек
Каналы : 2 канала
Частота : 48,0 КГц
Метод сжатия : С потерями
Размер потока : 24,4 Мбайт (8%)
Выравнивание : Соединение по промежуткам
Продолжительность промежутка : 40 мс. (1,00 видеокадр)
Время предзагрузки промежутка : 504 мс.
Библиотека кодирования : LAME3.99r
Настройки программы : -m s -V 4 -q 2 -lowpass 17 -b 128
-Скриншоты:

Яндекс.Метрика
Рейтинг@Mail.ru