Владимир Высоцкий - Не сыграно, не спето / (Филипп Сурков) [2014 г., документальный, SATRip]

 

Создавать темы 24-Июн-2014 02:17

-Владимир Высоцкий - Не сыграно, не спето-- Производство: Россия
Жанр: документальный
Год выпуска: 2014 г.
Продолжительность: 00:39:21
Перевод: Не требуется
Оригинальный аудиопоток: русский
Режиссер: Филипп Сурков-Описание: По общему признанию, судьбу Владимира Высоцкого в кино нельзя назвать удачной: из фильмов, где он должен был играть, но не играл, можно составить целый список. Почему несыгранных ролей у Высоцкого в два раза больше, чем сыгранных? В каких фильмах, у каких режиссеров он должен был сниматься? Есть ли связь между событиями его личной жизни и несостоявшимися ролями в кино?-Качество видео: SATRip
Контейнер: AVI
Видео кодек: XviD
Аудио кодек: MP3
Видео: 704x416, 25 fps, XviD, 1499 kbps avg, 0.20 bit/pixel
Аудио: MPEG Layer 3, 48 kHz, 2 ch, 128.00 kbps
Cубтитры: отсутствуют

Media Info

Формат : AVI
Формат/Информация : Audio Video Interleave
Размер файла : 461 Мбайт
Продолжительность : 39 м.
Общий поток : 1638 Кбит/сек
Программа кодирования : VirtualDubMod 1.5.10.3 | www.virtualdub-fr.org || (build 2550/release)
Библиотека кодирования : VirtualDubMod build 2550/release
Видео
Идентификатор : 0
Формат : MPEG-4 Visual
Профиль формата : Advanced [email protected]
Параметр BVOP формата : 2
Параметр QPel формата : Нет
Параметр GMC формата : Без точки перехода
Параметр матрицы формата : Default (MPEG)
Идентификатор кодека : XVID
Идентификатор кодека/Подсказка : XviD
Продолжительность : 39 м.
Битрейт : 1500 Кбит/сек
Ширина : 704 пикселя
Высота : 416 пикселей
Соотношение сторон : 1,692
Частота кадров : 25,000 кадров/сек
Цветовое пространство : YUV
Субдискретизация насыщенности : 4:2:0
Битовая глубина : 8 бит
Тип развёртки : Прогрессивная
Метод сжатия : С потерями
Бит/(Пиксели*Кадры) : 0.205
Размер потока : 422 Мбайт (92%)
Библиотека кодирования : XviD 1.2.1 (UTC 2008-12-04)
Аудио
Идентификатор : 1
Формат : MPEG Audio
Версия формата : Version 1
Профиль формата : Layer 3
Идентификатор кодека : 55
Идентификатор кодека/Подсказка : MP3
Продолжительность : 39 м.
Вид битрейта : Постоянный
Битрейт : 128 Кбит/сек
Каналы : 2 канала
Частота : 48,0 КГц
Метод сжатия : С потерями
Размер потока : 36,0 Мбайт (8%)
Выравнивание : Соединение по промежуткам
Продолжительность промежутка : 40 мс. (1,00 видеокадр)
Время предзагрузки промежутка : 504 мс.
Библиотека кодирования : LAME3.99r
Настройки программы : -m s -V 4 -q 2 -lowpass 17 -b 128

Скриншоты

Яндекс.Метрика
Рейтинг@Mail.ru