Тайна пропавшего рейса / (Юлия Ермолина, Людмила Снигирева) [2014 г., документальный, DVB]

 

Создавать темы 24-Июн-2014 02:15

-Тайна пропавшего рейса-- Производство: Россия
Жанр: документальный
Год выпуска: 2014 г.
Продолжительность: 00:44:00
Перевод: Не требуется
Оригинальный аудиопоток: русский
Режиссер: Юлия Ермолина, Людмила Снигирева-Описание: Исчезновение самолета Boeing стало «беспрецедентной загадкой»
Авиалайнер, совершавший рейс из столицы Малайзии Куала-Лумпура в Пекин с 227 пассажирами и 12 членами экипажа, в субботу пропал с экранов радаров. Правоохранители Малайзии приступили к расследованию версии о теракте на борту.-Качество видео: DVB
Контейнер: TS/M2TS
Видео кодек: AVC
Аудио кодек: AAC
Видео: AVC, аноморф. 720х576, 4:3, 2969 Кбит/сек, 25 fps
Аудио: AАC, 160 Кбит/сек, 48 КГц, 2 канала
Cубтитры: отсутствуют

Media Info

Формат : MPEG-TS
Размер файла : 1,02 Гбайт
Продолжительность : 44 м.
Режим общего битрейта : Переменный
Общий поток : 3294 Кбит/сек
Видео
Идентификатор : 1605 (0x645)
Идентификатор меню : 605 (0x25D)
Формат : AVC
Формат/Информация : Advanced Video Codec
Профиль формата : [email protected]
Параметр CABAC формата : Да
Параметр ReFrames формата : 3 кадра
Идентификатор кодека : 27
Продолжительность : 44 м.
Битрейт : 2969 Кбит/сек
Ширина : 720 пикселей
Высота : 576 пикселей
Соотношение сторон : 4:3
Частота кадров : 25,000 кадров/сек
Стандарт вещания : PAL
Цветовое пространство : YUV
Субдискретизация насыщенности : 4:2:0
Битовая глубина : 8 бит
Тип развёртки : Чересстрочная
Порядок развёртки : Верхнее поле первое
Бит/(Пиксели*Кадры) : 0.286
Размер потока : 940 Мбайт (90%)
Основные цвета : BT.601 PAL
Характеристики трансфера : BT.470 System B, BT.470 System G
Коэффициенты матрицы : BT.601
Аудио
Идентификатор : 2605 (0xA2D)
Идентификатор меню : 605 (0x25D)
Формат : MPEG Audio
Версия формата : Version 1
Профиль формата : Layer 2
Идентификатор кодека : 4
Продолжительность : 44 м.
Вид битрейта : Постоянный
Битрейт : 160 Кбит/сек
Каналы : 2 канала
Частота : 48,0 КГц
Метод сжатия : С потерями
Задержка видео : 67 мс.
Размер потока : 50,7 Мбайт (5%)
Язык : std
Язык, дополнительно : Clean effects

Скриншоты

Яндекс.Метрика
Рейтинг@Mail.ru