Выживут только любовники / Only Lovers Left Alive (Джим Джармуш / Jim Jarmusch) [2013 г., Фантастика, триллер, драма, HDRip] Dub [Чистый звук]

 

Создавать темы 24-Июн-2014 02:06

-Выживут только любовники / Only Lovers Left Alive-- Производство: Великобритания, Германия, Франция, Кипр, США
Год выпуска: 2013 г.
Жанр: Фантастика, триллер, драма
Продолжительность: 02:03:15
Мировая премьера: 25 мая 2013
Российская премьера: 10 апреля 2014
Перевод: Профессиональный (полное дублирование) [Чистый звук]
Режиссер: Джим Джармуш / Jim Jarmusch-В ролях: Том Хиддлстон, Тильда Суинтон, Миа Васиковска, Джон Хёрт, Антон Ельчин, Джеффри Райт, Слиман Дази, Картер Логан, Али Эмин, Ясмин Хамдан-Описание: История древних вампиров Адама и Евы, которые видели ещё татаро-монгольское иго и инквизиции. Адам — рокер из Детройта, андеграунд-музыку. Он уже очень старый, он хочет тишины, покоя, и тихо ненавидит «зомби» (так вампиры зовут людей). Ева же — напротив, весьма жизнерадостная вампирелла постарше, общающаяся с поэтом времён Шекспира, Кристофером Марло, и живущая в Танжере. Она приезжает вытаскивать своего любовника из пучины депрессии. Но идиллию нарушает внезапно заявляющаяся младшая сестра Евы — Ава. Исход ситуации предсказать не в силах никто — выживут только любовники?-Качество видео: HDRip
Контейнер: AVI
Видео кодек: XviD
Аудио кодек: AC3
Видео: MPEG-4 Visual at 1304 Кбит/сек : 720 x 384 (1.875) at 23.976 fps, 0.197 Бит/Пиксели*Кадры
Аудио: AC-3 at 192 Кбит/сек : 2 канала, 48,0 КГц
Cубтитры: отсутствуют

Media Info

Общее
Полное имя : D:\уторент\раздачи\Vyzhivut toljko lyubovniki 2013 HDRip.avi
Формат : AVI
Формат/Информация : Audio Video Interleave
Размер файла : 1,47 Гбайт
Продолжительность : 2 ч. 3 м.
Общий поток : 1702 Кбит/сек
Программа кодирования : VirtualDubMod 1.5.10.2 (build 2540/release)
Библиотека кодирования : VirtualDubMod build 2540/release
Видео
Идентификатор : 0
Формат : MPEG-4 Visual
Профиль формата : Advanced [email protected]
Параметр BVOP формата : 2
Параметр QPel формата : Нет
Параметр GMC формата : Без точки перехода
Параметр матрицы формата : Default (MPEG)
Идентификатор кодека : XVID
Идентификатор кодека/Подсказка : XviD
Продолжительность : 2 ч. 3 м.
Битрейт : 1304 Кбит/сек
Ширина : 720 пикселей
Высота : 384 пикселя
Соотношение сторон : 1,85:1
Частота кадров : 23,976 кадра/сек
Цветовое пространство : YUV
Субдискретизация насыщенности : 4:2:0
Битовая глубина : 8 бит
Тип развёртки : Прогрессивная
Метод сжатия : С потерями
Бит/(Пиксели*Кадры) : 0.197
Размер потока : 1,12 Гбайт (77%)
Библиотека кодирования : XviD 1.2.1 (UTC 2008-12-04)
Аудио #1
Идентификатор : 1
Формат : AC-3
Формат/Информация : Audio Coding 3
Расширение режима : CM (complete main)
Параметр Endianness формата : Big
Идентификатор кодека : 2000
Продолжительность : 2 ч. 3 м.
Вид битрейта : Постоянный
Битрейт : 192 Кбит/сек
Каналы : 2 канала
Расположение каналов : Front: L R
Частота : 48,0 КГц
Битовая глубина : 16 бит
Метод сжатия : С потерями
Размер потока : 169 Мбайт (11%)
Выравнивание : Разделение по промежуткам
Продолжительность промежутка : 42 мс. (1,00 видеокадр)
Время предзагрузки промежутка : 500 мс.
Аудио #2
Идентификатор : 2
Формат : AC-3
Формат/Информация : Audio Coding 3
Расширение режима : CM (complete main)
Параметр Endianness формата : Big
Идентификатор кодека : 2000
Продолжительность : 2 ч. 3 м.
Вид битрейта : Постоянный
Битрейт : 192 Кбит/сек
Каналы : 2 канала
Расположение каналов : Front: L R
Частота : 48,0 КГц
Битовая глубина : 16 бит
Метод сжатия : С потерями
Размер потока : 169 Мбайт (11%)
Выравнивание : Разделение по промежуткам
Продолжительность промежутка : 42 мс. (1,00 видеокадр)
Время предзагрузки промежутка : 500 мс.

Скриншоты

Яндекс.Метрика
Рейтинг@Mail.ru