Burime: Игры в темноте (Илона Жунда, Мила Фахурдинова, Евгений Белов) [2014 г., Триллер, драма, WEB-DLRip] [iTunes]

 

Создавать темы 24-Июн-2014 02:05

-Burime: Игры в темноте-- Производство: Россия, fat-free group
Режиссер: Илона Жунда, Мила Фахурдинова, Евгений Белов
Жанр: Триллер, драма
Год выпуска: 2014 г.
Продолжительность: 01:56:52
Российская премьера: 16 июня 2014
В ролях: Елена Антипова, Сергей Вершинин, Андрей Оганян, Евгений Сенченко, Анна Зарянкина, Мария Позднякова, Светлана Сандракова, Валерий Новиков, Юлия Железняк, Евгений Галенко-Описание: 11 безнадежно больных людей заперты на чердаке для смертельной игры. Но среди них есть тот, кто собрал их здесь и он — здоров. Если больные найдут здорового, то смогут продлить себе жизнь. Если нет — умрут.-Качество видео: WEB-DLRip
Контейнер: AVI
Видео кодек: XviD
Аудио кодек: AC3
Видео: 720x400 (1.80:1), 24.000 fps, XviD build 50 ~1441 kbps avg, 0.21 bit/pixel
Аудио: 48 kHz, AC3 Dolby Digital, 2/0 (L,R) ch, ~224 kbps

Media Info

General
Complete name : W:\Igry.v.temnote.2014.WEBDLRip.1400Mb.avi
Format : AVI
Format/Info : Audio Video Interleave
File size : 1.37 GiB
Duration : 1h 56mn
Overall bit rate : 1 675 Kbps
Writing application : VirtualDubMod 1.5.10.2 (build 2540/release)
Writing library : VirtualDubMod build 2540/release
Video
ID : 0
Format : MPEG-4 Visual
Format profile : Advanced [email protected]
Format settings, BVOP : Yes
Format settings, QPel : No
Format settings, GMC : No warppoints
Format settings, Matrix : Default (MPEG)
Codec ID : XVID
Codec ID/Hint : XviD
Duration : 1h 56mn
Bit rate : 1 441 Kbps
Width : 720 pixels
Height : 400 pixels
Display aspect ratio : 16:9
Frame rate : 24.000 fps
Color space : YUV
Chroma subsampling : 4:2:0
Bit depth : 8 bits
Scan type : Progressive
Bits/(Pixel*Frame) : 0.209
Stream size : 1.18 GiB (86%)
Writing library : XviD 1.2.1 (UTC 2008-12-04)
Audio
ID : 1
Format : AC-3
Format/Info : Audio Coding 3
Mode extension : CM (complete main)
Codec ID : 2000
Duration : 1h 56mn
Bit rate mode : Constant
Bit rate : 224 Kbps
Channel(s) : 2 channels
Channel positions : Front: L R
Sampling rate : 48.0 KHz
Bit depth : 16 bits
Stream size : 187 MiB (13%)
Alignment : Split accross interleaves
Interleave, duration : 42 ms (1.00 video frame)
Interleave, preload duration : 500 ms

Скриншоты

Яндекс.Метрика
Рейтинг@Mail.ru