(Pop) Raimonds Pauls - Zelta 70 - 2005, FLAC (image+.cue), lossless

 

Создавать темы 23-Июн-2014 21:56

Raimonds Pauls - Zelta 70- Год выпуска диска: 2005
Производитель диска: Латвия
Лэйбл: Microphone Records ‎– MRCD 290
Формат: 2хCD, Compilation
Жанр: Pop
Аудио кодек: FLAC
Тип рипа: image+.cue
Битрейт аудио: lossless
Продолжительность: 01:11:59 + 01:12:27
Треклист:
CD1
01 - Vernisaazha
02 - Rudenii veelu, veelu
03 - Paari dzelmei
04 - Ar mani atkal runaa kaijas
05 - Kam ziedi mezhaabele
06 - Shajaa pasaulee
07 - Smaidas

Продолжение треклиста:

08 - Tev mana labaa
09 - Rudens ogle
10 - Mirdzoshais gliemezhvaaks
11 - Paldies Jums!
12 - Sikspaarnja Fleedermausha shuupuljdziesma
13 - Laternu stundaa
14 - Vientuliiba
15 - Nenopuut sveci
16 - Eergjeles naktii
17 - Zvani
18 - Ai, dundur dundur dun
19 - Zied ievas Siguldaa
20 - Nakts dziesma

EAC log:

Exact Audio Copy V0.99 prebeta 3 from 28. July 2007
Отчёт EAC об извлечении, выполненном 28. сентября 2009, 18:33
Raimonds Pauls / Zelta 70
Дисковод: HL-DT-STDVD-RAM GH22LP20 Adapter: 0 ID: 0
Режим чтения : Достоверность
Использование точного потока : Да
Отключение кэша аудио : Да
Использование указателей C2 : Нет
Коррекция смещения при чтении : 102
Способность читать области Lead-in и Lead-out : Нет
Заполнение пропущенных сэмплов тишиной : Да
Удаление блоков с тишиной в начале и конце : Нет
При вычислениях CRC использовались нулевые сэмплы : Нет
Интерфейс : Установленный внешний ASPI-интерфейс
Выходной формат : Пользовательский кодировщик
Выбранный битрейт : 768 kBit/s
Качество : Высокий
Добавление ID3-тэга : Нет
Утилита сжатия : C:\Program Files\Exact Audio Copy\FLAC\FLAC.EXE
Дополнительные параметры : -6 -V -T "ARTIST=%a" -T "TITLE=%t" -T "ALBUM=%g" -T "DATE=%y" -T "TRACKNUMBER=%n" -T "GENRE=%m" -T "COMMENT=%e" %s -o %d
Смещение при сжатии : 0
TOC извлечённого CD
Трек | Старт | Длительность | Начальный сектор | Конечный сектор
---------------------------------------------------------------------
1 | 0:00.00 | 4:06.38 | 0 | 18487
2 | 4:06.38 | 3:09.44 | 18488 | 32706
3 | 7:16.07 | 3:06.12 | 32707 | 46668
4 | 10:22.19 | 2:41.27 | 46669 | 58770
5 | 13:03.46 | 3:01.09 | 58771 | 72354
6 | 16:04.55 | 2:43.58 | 72355 | 84637
7 | 18:48.38 | 3:56.36 | 84638 | 102373
8 | 22:44.74 | 3:10.27 | 102374 | 116650
9 | 25:55.26 | 3:24.49 | 116651 | 131999
10 | 29:20.00 | 3:09.51 | 132000 | 146225
11 | 32:29.51 | 3:23.41 | 146226 | 161491
12 | 35:53.17 | 4:10.00 | 161492 | 180241
13 | 40:03.17 | 2:47.52 | 180242 | 192818
14 | 42:50.69 | 5:30.43 | 192819 | 217611
15 | 48:21.37 | 3:36.22 | 217612 | 233833
16 | 51:57.59 | 5:05.26 | 233834 | 256734
17 | 57:03.10 | 4:48.39 | 256735 | 278373
18 | 61:51.49 | 3:15.17 | 278374 | 293015
19 | 65:06.66 | 3:46.14 | 293016 | 309979
20 | 68:53.05 | 3:06.16 | 309980 | 323945
Характеристики диапазона извлечения и сообщения об ошибках
Выбранный диапазон
Имя файла C:\Raimonds Pauls - Zelta 70\Raimonds Pauls - Zelta 70.wav
Пиковый уровень 98.4 %
Качество диапазона 100.0 %
CRC копии 456C7EC2
Копирование... OK
Ошибок не произошло
AccurateRip: сводка
Трек 1 точное извлечение (доверие 1) [78ED7411]
Трек 2 точное извлечение (доверие 1) [CE75E756]
Трек 3 точное извлечение (доверие 1) [EC8BE3E1]
Трек 4 точное извлечение (доверие 1) [3B361151]
Трек 5 точное извлечение (доверие 1) [F10BCDC1]
Трек 6 точное извлечение (доверие 1) [63328379]
Трек 7 точное извлечение (доверие 1) [D92F2E67]
Трек 8 точное извлечение (доверие 1) [20940835]
Трек 9 точное извлечение (доверие 1) [CEB479A7]
Трек 10 точное извлечение (доверие 1) [C3CABA2C]
Трек 11 точное извлечение (доверие 1) [A38CB9D5]
Трек 12 точное извлечение (доверие 1) [F86938EB]
Трек 13 точное извлечение (доверие 1) [A566BF22]
Трек 14 точное извлечение (доверие 1) [825FA3DB]
Трек 15 точное извлечение (доверие 1) [0DF98B49]
Трек 16 точное извлечение (доверие 1) [4E754821]
Трек 17 точное извлечение (доверие 1) [AA3196A5]
Трек 18 точное извлечение (доверие 1) [EF6D2117]
Трек 19 точное извлечение (доверие 1) [84F7C53B]
Трек 20 точное извлечение (доверие 1) [A6C3A9C3]
Все треки извлечены точно
Конец отчёта
CD2
01 - Baltijas juura
02 - Riigas legjenda
03 - Mees tikaamies martaa
04 - Tikai dzintars vien
05 - Caur manu sirdi naivu
06 - Lauku gurkjis Riigas tirguu
07 - Sabile, Talsi, Kandava
08 - Rudaciite
09 - Grieze
10 - Cielavinja
11 - Meemaa dziesma
12 - Anno Domini
13 - Zilais karbunkuls
14 - Karakalpa dziesma
15 - Lai slava tam
16 - Taa diena
17 - Somu pirts
18 - Papu saki mammai pats
19 - Nekal mani gredzenaa
20 - Es miilu tevi taa
21 - Tai pilseetai
22 - Chakaarniitis
23 - Uguntinja

EAC log:

Exact Audio Copy V0.99 prebeta 3 from 28. July 2007
Отчёт EAC об извлечении, выполненном 28. сентября 2009, 21:09
Raimonds Pauls / Zelta 70 (CD2)
Дисковод: HL-DT-STDVD-RAM GH22LP20 Adapter: 0 ID: 0
Режим чтения : Достоверность
Использование точного потока : Да
Отключение кэша аудио : Да
Использование указателей C2 : Нет
Коррекция смещения при чтении : 102
Способность читать области Lead-in и Lead-out : Нет
Заполнение пропущенных сэмплов тишиной : Да
Удаление блоков с тишиной в начале и конце : Нет
При вычислениях CRC использовались нулевые сэмплы : Нет
Интерфейс : Установленный внешний ASPI-интерфейс
Выходной формат : Пользовательский кодировщик
Выбранный битрейт : 768 kBit/s
Качество : Высокий
Добавление ID3-тэга : Нет
Утилита сжатия : C:\Program Files\Exact Audio Copy\FLAC\FLAC.EXE
Дополнительные параметры : -6 -V -T "ARTIST=%a" -T "TITLE=%t" -T "ALBUM=%g" -T "DATE=%y" -T "TRACKNUMBER=%n" -T "GENRE=%m" -T "COMMENT=%e" %s -o %d
Смещение при сжатии : 0
TOC извлечённого CD
Трек | Старт | Длительность | Начальный сектор | Конечный сектор
---------------------------------------------------------------------
1 | 0:00.00 | 4:42.53 | 0 | 21202
2 | 4:42.53 | 1:58.12 | 21203 | 30064
3 | 6:40.65 | 2:57.41 | 30065 | 43380
4 | 9:38.31 | 2:18.34 | 43381 | 53764
5 | 11:56.65 | 2:44.43 | 53765 | 66107
6 | 14:41.33 | 2:44.15 | 66108 | 78422
7 | 17:25.48 | 2:45.74 | 78423 | 90871
8 | 20:11.47 | 2:19.47 | 90872 | 101343
9 | 22:31.19 | 1:51.31 | 101344 | 109699
10 | 24:22.50 | 3:27.05 | 109700 | 125229
11 | 27:49.55 | 4:59.64 | 125230 | 147718
12 | 32:49.44 | 4:46.39 | 147719 | 169207
13 | 37:36.08 | 3:21.64 | 169208 | 184346
14 | 40:57.72 | 2:07.60 | 184347 | 193931
15 | 43:05.57 | 1:32.23 | 193932 | 200854
16 | 44:38.05 | 3:35.41 | 200855 | 217020
17 | 48:13.46 | 2:26.10 | 217021 | 227980
18 | 50:39.56 | 3:44.73 | 227981 | 244853
19 | 54:24.54 | 3:08.31 | 244854 | 258984
20 | 57:33.10 | 3:23.43 | 258985 | 274252
21 | 60:56.53 | 2:51.40 | 274253 | 287117
22 | 63:48.18 | 4:16.28 | 287118 | 306345
23 | 68:04.46 | 4:22.46 | 306346 | 326041
Характеристики диапазона извлечения и сообщения об ошибках
Выбранный диапазон
Имя файла C:\Raimonds Pauls - Zelta 70\Raimonds Pauls - Zelta 70 (CD2).wav
Пиковый уровень 100.0 %
Качество диапазона 100.0 %
CRC копии 96C58B21
Копирование... OK
Ошибок не произошло
AccurateRip: сводка
Трек 1 точное извлечение (доверие 1) [05784333]
Трек 2 точное извлечение (доверие 1) [1249BB4E]
Трек 3 точное извлечение (доверие 1) [5C129204]
Трек 4 точное извлечение (доверие 1) [50CE4E3E]
Трек 5 точное извлечение (доверие 1) [E2EA5CB5]
Трек 6 точное извлечение (доверие 1) [E1034151]
Трек 7 точное извлечение (доверие 1) [6680AEA1]
Трек 8 точное извлечение (доверие 1) [FD5E655F]
Трек 9 точное извлечение (доверие 1) [D9FA813D]
Трек 10 точное извлечение (доверие 1) [150F103E]
Трек 11 точное извлечение (доверие 1) [A48764A8]
Трек 12 точное извлечение (доверие 1) [675528FC]
Трек 13 точное извлечение (доверие 1) [8B2FC20A]
Трек 14 точное извлечение (доверие 1) [7E4276AC]
Трек 15 точное извлечение (доверие 1) [FAA2B2CB]
Трек 16 точное извлечение (доверие 1) [6C4368E9]
Трек 17 точное извлечение (доверие 1) [23748499]
Трек 18 точное извлечение (доверие 1) [1517B4AC]
Трек 19 точное извлечение (доверие 1) [15334A43]
Трек 20 точное извлечение (доверие 1) [E82C9DE4]
Трек 21 точное извлечение (доверие 1) [6AD17799]
Трек 22 точное извлечение (доверие 1) [109CA199]
Трек 23 точное извлечение (доверие 1) [8DB74FE6]
Все треки извлечены точно
Конец отчёта
Яндекс.Метрика
Рейтинг@Mail.ru