(Pop) Raimonds Pauls - Zelta 60 - 1996, FLAC (image+.cue), lossless

 

Создавать темы 23-Июн-2014 21:51

Raimonds Pauls - Zelta 60- Год выпуска диска: 1996
Производитель диска: Латвия
Лэйбл: Microphone Records ‎– MRCD010
Формат: 2хCD, Compilation
Жанр: Pop
Аудио кодек: FLAC
Тип рипа: tracks+.cue
Битрейт аудио: lossless
Продолжительность: 01:16:31 + 01:14:37
Трэклист:
CD1:
01 - Melodija no kinofilmas "Ilgais ceļš kāpās"
02 - Sens ir tas stāsts
03 - Mežrozīte
04 - Savāda vasara
05 - Dziesma nenosalst
06 - Zilā
07 - Vēju stundā
08 - Gaujai

Продолжение треклиста:

09 - Kāpēc man dziedāt svešu dziesmu
10 - Latgalei
11 - Nepārmet man
12 - Lana
13 - Elēģija
14 - Par pēdējo lapu
15 - Varbūt
16 - Baltā saule
17 - Zilie lini
18 - Lūgums
19 - Latviešu jūrniekiem
20 - Teic, kur zeme tā
21 - Aiz ezera augsti kalni
22 - Manai dzimtenei

EAC log:

Exact Audio Copy V0.99 prebeta 3 from 28. July 2007
Отчёт EAC об извлечении, выполненном 28. сентября 2009, 13:23
Raimonds Pauls / Zelta - 60 CD-1
Дисковод: HL-DT-STDVD-RAM GH22LP20 Adapter: 0 ID: 0
Режим чтения : Достоверность
Использование точного потока : Да
Отключение кэша аудио : Да
Использование указателей C2 : Нет
Коррекция смещения при чтении : 102
Способность читать области Lead-in и Lead-out : Нет
Заполнение пропущенных сэмплов тишиной : Да
Удаление блоков с тишиной в начале и конце : Нет
При вычислениях CRC использовались нулевые сэмплы : Нет
Интерфейс : Установленный внешний ASPI-интерфейс
Выходной формат : Пользовательский кодировщик
Выбранный битрейт : 768 kBit/s
Качество : Высокий
Добавление ID3-тэга : Нет
Утилита сжатия : C:\Program Files\Exact Audio Copy\FLAC\FLAC.EXE
Дополнительные параметры : -6 -V -T "ARTIST=%a" -T "TITLE=%t" -T "ALBUM=%g" -T "DATE=%y" -T "TRACKNUMBER=%n" -T "GENRE=%m" -T "COMMENT=%e" %s -o %d
Смещение при сжатии : 0
TOC извлечённого CD
Трек | Старт | Длительность | Начальный сектор | Конечный сектор
---------------------------------------------------------------------
1 | 0:00.00 | 6:16.65 | 0 | 28264
2 | 6:16.65 | 4:15.55 | 28265 | 47444
3 | 10:32.45 | 2:46.10 | 47445 | 59904
4 | 13:18.55 | 2:36.12 | 59905 | 71616
5 | 15:54.67 | 3:39.43 | 71617 | 88084
6 | 19:34.35 | 2:51.20 | 88085 | 100929
7 | 22:25.55 | 2:53.60 | 100930 | 113964
8 | 25:19.40 | 2:53.67 | 113965 | 127006
9 | 28:13.32 | 4:32.70 | 127007 | 147476
10 | 32:46.27 | 3:31.65 | 147477 | 163366
11 | 36:18.17 | 3:37.53 | 163367 | 179694
12 | 39:55.70 | 3:40.12 | 179695 | 196206
13 | 43:36.07 | 2:43.43 | 196207 | 208474
14 | 46:19.50 | 3:20.02 | 208475 | 223476
15 | 49:39.52 | 3:05.15 | 223477 | 237366
16 | 52:44.67 | 3:46.58 | 237367 | 254374
17 | 56:31.50 | 2:50.15 | 254375 | 267139
18 | 59:21.65 | 3:07.27 | 267140 | 281191
19 | 62:29.17 | 3:44.48 | 281192 | 298039
20 | 66:13.65 | 3:00.00 | 298040 | 311539
21 | 69:13.65 | 2:47.35 | 311540 | 324099
22 | 72:01.25 | 4:30.17 | 324100 | 344366
Характеристики диапазона извлечения и сообщения об ошибках
Выбранный диапазон
Имя файла C:\Raimonds Pauls - Zelta - 60 CD-1\Raimonds Pauls - Zelta - 60 CD-1.wav
Пиковый уровень 72.0 %
Качество диапазона 100.0 %
CRC копии 6529ACE0
Копирование... OK
Ошибок не произошло
Конец отчёта
CD2:
01 - Kurzeme
02 - Pērļu zvejnieks
03 - Pie jūras dzīve mana
04 - Vella kalpu dziesma
05 - Tā es tevi mīlēšu
06 - Trīs runči
07 - Genoveva
08 - Kerijas dziesma
09 - Vieglprātīgā sirds
10 - Tālā
11 - No nakts uz rītu
12 - Upei pāri
13 - Kamolā tinēja
14 - Vientuļais namiņš
15 - Miega vilcieniņš
16 - Circenītis
17 - Nostaļģija
18 - Kā senā dziesmā
19 - Es aiziet nevaru
20 - Vīrietis labākos gados
21 - Liepājai
22 - Viss nāk un aiziet tālumā

EAC log:

Exact Audio Copy V0.99 prebeta 3 from 28. July 2007
Отчёт EAC об извлечении, выполненном 28. сентября 2009, 14:13
Raimonds Pauls / Zelta - 60 CD2
Дисковод: HL-DT-STDVD-RAM GH22LP20 Adapter: 0 ID: 0
Режим чтения : Достоверность
Использование точного потока : Да
Отключение кэша аудио : Да
Использование указателей C2 : Нет
Коррекция смещения при чтении : 102
Способность читать области Lead-in и Lead-out : Нет
Заполнение пропущенных сэмплов тишиной : Да
Удаление блоков с тишиной в начале и конце : Нет
При вычислениях CRC использовались нулевые сэмплы : Нет
Интерфейс : Установленный внешний ASPI-интерфейс
Выходной формат : Пользовательский кодировщик
Выбранный битрейт : 768 kBit/s
Качество : Высокий
Добавление ID3-тэга : Нет
Утилита сжатия : C:\Program Files\Exact Audio Copy\FLAC\FLAC.EXE
Дополнительные параметры : -6 -V -T "ARTIST=%a" -T "TITLE=%t" -T "ALBUM=%g" -T "DATE=%y" -T "TRACKNUMBER=%n" -T "GENRE=%m" -T "COMMENT=%e" %s -o %d
Смещение при сжатии : 0
TOC извлечённого CD
Трек | Старт | Длительность | Начальный сектор | Конечный сектор
---------------------------------------------------------------------
1 | 0:00.00 | 3:11.72 | 0 | 14396
2 | 3:11.72 | 3:19.40 | 14397 | 29361
3 | 6:31.37 | 3:59.55 | 29362 | 47341
4 | 10:31.17 | 2:16.38 | 47342 | 57579
5 | 12:47.55 | 2:50.12 | 57580 | 70341
6 | 15:37.67 | 3:58.73 | 70342 | 88264
7 | 19:36.65 | 3:25.27 | 88265 | 103666
8 | 23:02.17 | 3:27.43 | 103667 | 119234
9 | 26:29.60 | 3:19.57 | 119235 | 134216
10 | 29:49.42 | 3:27.40 | 134217 | 149781
11 | 33:17.07 | 4:33.48 | 149782 | 170304
12 | 37:50.55 | 3:54.42 | 170305 | 187896
13 | 41:45.22 | 3:47.45 | 187897 | 204966
14 | 45:32.67 | 3:25.58 | 204967 | 220399
15 | 48:58.50 | 2:59.70 | 220400 | 233894
16 | 51:58.45 | 2:34.62 | 233895 | 245506
17 | 54:33.32 | 2:56.18 | 245507 | 258724
18 | 57:29.50 | 4:21.32 | 258725 | 278331
19 | 61:51.07 | 3:34.38 | 278332 | 294419
20 | 65:25.45 | 2:53.12 | 294420 | 307406
21 | 68:18.57 | 2:40.48 | 307407 | 319454
22 | 70:59.30 | 3:37.57 | 319455 | 335786
Характеристики диапазона извлечения и сообщения об ошибках
Выбранный диапазон
Имя файла C:\Raimonds Pauls - Zelta - 60 CD2\Raimonds Pauls - Zelta - 60 CD2.wav
Пиковый уровень 70.4 %
Качество диапазона 100.0 %
CRC копии 522D320A
Копирование... OK
Ошибок не произошло
Конец отчёта
Яндекс.Метрика
Рейтинг@Mail.ru