Гол живых мертвецов / Goal of the Dead (Тьерри Пуаро, Бенжамен Роше / Thierry Poiraud, Benjamin Rocher) [2014 г., Ужасы, комедия, BDRip, 720p] VO (den904) + Original (Fre)

 

Создавать темы 23-Июн-2014 16:56

-Гол живых мертвецов / Goal of the Dead-«soccer is a team sport, not the survival»- Производство: Франция / Capture The Flag Films, Malakoff Studios
Год выпуска: 2014 г.
Жанр: Ужасы, комедия
Продолжительность: 02:01:04
Мировая премьера: 27 февраля 2014
Перевод: Любительский (одноголосый, закадровый) [den904]
Оригинальный аудиопоток: французский-Режиссер: Тьерри Пуаро, Бенжамен Роше / Thierry Poiraud, Benjamin Rocher
В ролях: Элбан Ленуар, Чарли Брунэо, Тифен Давьо, Ахмед Силла, Бруно Саломон, Патрик Лигарде, Ксавье Лоран, Себастьен Вандерберг, Дженни Арассе, Жан Франсуа Кэйри-Описание: Футболисты одной из лучших французских команд в конце игрового сезона приезжают в Каплонг, небольшой город на северо-востоке страны, чтобы поучаствовать в товарищеском матче с местными спортсменами. Однако одновременно с началом матча вспыхивает ужасная эпидемия, распространяющаяся по городу со скоростью лесного пожара. Таинственная инфекция превращает зараженных в жестоких зомби, жаждущих крови.-Качество видео: BDRip
Контейнер: MKV
Стандарт разрешения: 720p
Видео кодек: H.264
Аудио кодек: AC3 / DTS
Видео: 1280х528 (2.40:1), 4 935 Kbps, 23.976 fps, 0.305 bit/pix
Аудио: AC3, 192 Kbps, 2 ch, 48.0 KHz [Rus, VO]
Аудио #2: DTS, 1 509 Kbps, 6 ch, 48.0 KHz [Fre, Original]
Cубтитры: отсутствуют

Media Info

General
Unique ID : 209324281954951898675083969366025013622 (0x9D7A63E8C377C9F6AE26020CBADB8976)
Complete name : D:\Goal.Of.The.Dead.2014.Blu.Ray.720p.mkv
Format : Matroska
Format version : Version 4 / Version 2
File size : 5.61 GiB
Duration : 2h 1mn
Overall bit rate : 6 637 Kbps
Encoded date : UTC 2014-06-17 16:45:35
Writing application : mkvmerge v7.0.0 ('Where We Going') 64bit built on Jun 9 2014 15:16:27
Writing library : libebml v1.3.0 + libmatroska v1.4.1
Video
ID : 1
Format : AVC
Format/Info : Advanced Video Codec
Format profile : [email protected]
Format settings, CABAC : Yes
Format settings, ReFrames : 8 frames
Codec ID : V_MPEG4/ISO/AVC
Duration : 2h 1mn
Bit rate : 4 935 Kbps
Width : 1 280 pixels
Height : 528 pixels
Display aspect ratio : 2.40:1
Frame rate mode : Constant
Frame rate : 23.976 fps
Color space : YUV
Chroma subsampling : 4:2:0
Bit depth : 8 bits
Scan type : Progressive
Bits/(Pixel*Frame) : 0.305
Stream size : 4.06 GiB (72%)
Writing library : x264 core 130 r2273 b3065e6
Encoding settings : cabac=1 / ref=8 / deblock=1:-1:-1 / analyse=0x3:0x113 / me=umh / subme=7 / psy=1 / psy_rd=1.00:0.00 / mixed_ref=1 / me_range=24 / chroma_me=1 / trellis=2 / 8x8dct=1 / cqm=0 / deadzone=21,11 / fast_pskip=1 / chroma_qp_offset=-2 / threads=12 / lookahead_threads=3 / sliced_threads=0 / nr=0 / decimate=1 / interlaced=0 / bluray_compat=0 / constrained_intra=0 / bframes=6 / b_pyramid=2 / b_adapt=2 / b_bias=0 / direct=3 / weightb=1 / open_gop=0 / weightp=2 / keyint=240 / keyint_min=24 / scenecut=40 / intra_refresh=0 / rc_lookahead=40 / rc=2pass / mbtree=1 / bitrate=4935 / ratetol=1.0 / qcomp=0.60 / qpmin=0 / qpmax=69 / qpstep=4 / cplxblur=20.0 / qblur=0.5 / ip_ratio=1.40 / aq=1:1.00
Language : English
Default : Yes
Forced : No
Color primaries : BT.709
Transfer characteristics : BT.709
Matrix coefficients : BT.709
Audio #1
ID : 2
Format : AC-3
Format/Info : Audio Coding 3
Mode extension : CM (complete main)
Format settings, Endianness : Big
Codec ID : A_AC3
Duration : 2h 1mn
Bit rate mode : Constant
Bit rate : 192 Kbps
Channel(s) : 2 channels
Channel positions : Front: L R
Sampling rate : 48.0 KHz
Bit depth : 16 bits
Compression mode : Lossy
Stream size : 166 MiB (3%)
Title : den904
Language : Russian
Default : Yes
Forced : Yes
Audio #2
ID : 3
Format : DTS
Format/Info : Digital Theater Systems
Mode : 16
Format settings, Endianness : Big
Codec ID : A_DTS
Duration : 2h 1mn
Bit rate mode : Constant
Bit rate : 1 509 Kbps
Channel(s) : 6 channels
Channel positions : Front: L C R, Side: L R, LFE
Sampling rate : 48.0 KHz
Bit depth : 24 bits
Compression mode : Lossy
Stream size : 1.28 GiB (23%)
Language : French
Default : No
Forced : No
Menu
00:00:00.000 : en:00:00:00.000
00:14:06.929 : en:00:14:06.929
00:30:17.024 : en:00:30:17.024
00:38:46.241 : en:00:38:46.241
00:53:21.490 : en:00:53:21.490
01:00:23.161 : en:01:00:23.161
01:11:28.784 : en:01:11:28.784
01:21:24.213 : en:01:21:24.213
01:32:24.706 : en:01:32:24.706
01:41:11.983 : en:01:41:11.983
01:47:07.546 : en:01:47:07.546
01:55:01.186 : en:01:55:01.186

Скриншоты

Яндекс.Метрика
Рейтинг@Mail.ru