(Space-Synth/Italo-Disco) Laserdance - The 12'' Mixes - 1995, FLAC (image+.cue), lossless

 

Создавать темы 23-Июн-2014 14:47

--Laserdance - The 12'' Mixes-- Жанр: Space-Synth/Italo-Disco
Год выпуска диска: 1995
Производитель диска: Germany - ZYX - Golden-Dance-Classics
Аудио кодек: FLAC
Тип рипа: image+.cue
Битрейт аудио: lossless
Продолжительность: 01:07:48
Трэклист:
01. Humanoid Invasion (Original Mix) 7:02
02. Laserdance ('88 Remix) 6:41
03. Powerrun 5:07
04. The Challenge (Space Version) 7:33
05. Shotgun (Into The Night) (Remix) 5:12
06. Mars Invaders (Remix) 5:03
07. Enemy On Earth (Space Mix) 5:15
08. Fear 4:16
09. Technoid (Ambiente Version) 5:31
10. Fire On Earth (Remix) 6:22
11. Slow Mix 9:47

Back

Отчёт EAC

Exact Audio Copy V0.99 prebeta 5 from 4. May 2009
Отчёт EAC об извлечении, выполненном 1. ноября 2009, 20:56
Laserdance / The 12'' Mixes
Дисковод: Optiarc DVD RW AD-5200A Adapter: 0 ID: 0
Режим чтения : Достоверность
Использование точного потока : Да
Отключение кэша аудио : Да
Использование указателей C2 : Нет
Коррекция смещения при чтении : 48
Способность читать области Lead-in и Lead-out : Нет
Заполнение пропущенных сэмплов тишиной : Да
Удаление блоков с тишиной в начале и конце : Нет
При вычислениях CRC использовались нулевые сэмплы : Да
Интерфейс : Установленный внешний ASPI-интерфейс
Выходной формат : Внутренние WAV-операции
Формат сэмплов : 44.100 Гц; 16 бит; стерео
TOC извлечённого CD
Трек | Старт | Длительность | Начальный сектор | Конечный сектор
---------------------------------------------------------------------
1 | 0:00.00 | 7:01.40 | 0 | 31614
2 | 7:01.40 | 6:41.27 | 31615 | 61716
3 | 13:42.67 | 5:07.00 | 61717 | 84741
4 | 18:49.67 | 7:32.65 | 84742 | 118706
5 | 26:22.57 | 5:12.25 | 118707 | 142131
6 | 31:35.07 | 5:02.68 | 142132 | 164849
7 | 36:38.00 | 5:15.17 | 164850 | 188491
8 | 41:53.17 | 4:15.38 | 188492 | 207654
9 | 46:08.55 | 5:31.22 | 207655 | 232501
10 | 51:40.02 | 6:22.13 | 232502 | 261164
11 | 58:02.15 | 9:46.45 | 261165 | 305159
Характеристики диапазона извлечения и сообщения об ошибках
Выбранный диапазон
Имя файла E:\Laserdance - The 12'' Mixes\Laserdance - The 12'' Mixes.wav
Пиковый уровень 100.0 %
Качество диапазона 99.9 %
CRC теста 350C3BD7
CRC копии 350C3BD7
Копирование... OK
Ошибок не произошло
AccurateRip: сводка
Трек 1 точное извлечение (доверие 4) [60AF4ECB]
Трек 2 точное извлечение (доверие 4) [DF6B6B77]
Трек 3 точное извлечение (доверие 4) [39902D3F]
Трек 4 точное извлечение (доверие 4) [43D80837]
Трек 5 точное извлечение (доверие 4) [7F6B82C6]
Трек 6 точное извлечение (доверие 4) [7F0052FB]
Трек 7 точное извлечение (доверие 4) [0AC2D714]
Трек 8 точное извлечение (доверие 4) [FAC3DB67]
Трек 9 точное извлечение (доверие 4) [F65AB2E5]
Трек 10 точное извлечение (доверие 4) [271BC203]
Трек 11 точное извлечение (доверие 4) [88BA4127]
Все треки извлечены точно
Конец отчёта
Яндекс.Метрика
Рейтинг@Mail.ru