(Space-Synth/Italo-Disco) Laserdance - Future Generation - 2001, FLAC (image+.cue), lossless

 

Создавать темы 23-Июн-2014 14:46

--Laserdance - Future Generation-- Жанр: Space-Synth/Italo-Disco
Год выпуска диска: 2001
Производитель диска: Germany - ZYX - Golden-Dance-Classics
Аудио кодек: FLAC
Тип рипа: image+.cue
Битрейт аудио: lossless
Продолжительность: 00:36:48
Трэклист:
01. Power Run 4:43
02. Humanoid Invasion 4:15
03. Space Dance 4:20
04. Goody's Return 4:19
05. Future Generation 4:46
06. Digital Dream 5:19
07. Fear 4:18
08. Laser Fear 4:50

Back

Отчёт EAC

Exact Audio Copy V0.99 prebeta 5 from 4. May 2009
Отчёт EAC об извлечении, выполненном 1. ноября 2009, 23:15
Laserdance / Future Generation
Дисковод: Optiarc DVD RW AD-5200A Adapter: 0 ID: 0
Режим чтения : Достоверность
Использование точного потока : Да
Отключение кэша аудио : Да
Использование указателей C2 : Нет
Коррекция смещения при чтении : 48
Способность читать области Lead-in и Lead-out : Нет
Заполнение пропущенных сэмплов тишиной : Да
Удаление блоков с тишиной в начале и конце : Нет
При вычислениях CRC использовались нулевые сэмплы : Да
Интерфейс : Установленный внешний ASPI-интерфейс
Выходной формат : Внутренние WAV-операции
Формат сэмплов : 44.100 Гц; 16 бит; стерео
TOC извлечённого CD
Трек | Старт | Длительность | Начальный сектор | Конечный сектор
---------------------------------------------------------------------
1 | 0:00.00 | 4:42.54 | 0 | 21203
2 | 4:42.54 | 4:14.69 | 21204 | 40322
3 | 8:57.48 | 4:20.13 | 40323 | 59835
4 | 13:17.61 | 4:19.11 | 59836 | 79271
5 | 17:36.72 | 4:45.44 | 79272 | 100690
6 | 22:22.41 | 5:18.42 | 100691 | 124582
7 | 27:41.08 | 4:17.69 | 124583 | 143926
8 | 31:59.02 | 4:49.69 | 143927 | 165670
Характеристики диапазона извлечения и сообщения об ошибках
Выбранный диапазон
Имя файла E:\Laserdance - Future Generation\Laserdance - Future Generation.wav
Пиковый уровень 94.9 %
Качество диапазона 100.0 %
CRC теста 23057A68
CRC копии 23057A68
Копирование... OK
Ошибок не произошло
AccurateRip: сводка
Трек 1 нет в базе данных
Трек 2 нет в базе данных
Трек 3 нет в базе данных
Трек 4 нет в базе данных
Трек 5 нет в базе данных
Трек 6 нет в базе данных
Трек 7 нет в базе данных
Трек 8 нет в базе данных
Ни одного трека нет в базе AccurateRip
Конец отчёта
Яндекс.Метрика
Рейтинг@Mail.ru