Иван Васильевич меняет профессию (1973) BDRip 720p

 

Создавать темы 22-Июн-2014 21:20

Иван Васильевич меняет профессию Страна: СССР
Студия: Мосфильм
Жанр: Фантастика, комедия, приключения, семейный
Год выпуска: 1973
Продолжительность: 01:31:38
Перевод: Не требуется
Cубтитры: нет
Оригинальная аудиодорожка: русский
Режиссер: Леонид Гайдай
В ролях: Александр Демьяненко, Юрий Яковлев, Леонид Куравлёв, Наталья Крачковская, Савелий Крамаров, Наталья Селезнёва, Владимир Этуш, Михаил Пуговкин, Сергей Филиппов, Наталья Кустинская...
Описание: Инженер-изобретатель Тимофеев сконструировал машину времени, которая соединила его квартиру с далеким шестнадцатым веком - точнее, с палатами государя Ивана Грозного. Туда-то и попадают тезка царя пенсионер-общественник Иван Васильевич Бунша и квартирный вор Жорж Милославский.
На их место в двадцатом веке «переселяется» великий государь. Поломка машины приводит ко множеству неожиданных и забавных событий...

Тип релиза: BDRip 720p
Контейнер: MKV
Видео: MPEG-4 AVC Video, 986 х 720 (4:3), 23,976 кадра/сек, 8625 Кбит/сек, 0.507 бит/пиксель
Аудио: Russian, Audio Coding 3, 48,0 КГц, 448 Кбит/сек, 6 каналов (Front: L C R, Side: L R, LFE)
Аудио 2: Russian, Audio Coding 3, 48,0 КГц, 224 Кбит/сек, 1 канал (Front: C)
Доп. информация:
  • Сохранены оригинальные чаптеры как на Blu-ray.
  • Полная реставрация изображения и звука. Исходные киноматериалы подготовлены Госфильмофондом России. Покадровая цифровая реставрация изображения, ремастеринг звука и авторинг проведены объединением «Крупный план».

MediaInfo

Общее
Формат : Matroska
Версия формата : Version 2
Размер файла : 6,07 Гбайт
Продолжительность : 1 ч. 31 м.
Общий поток : 9486 Кбит/сек
Название фильма : Иван Васильевич меняет профессию (1973)
Дата кодирования : UTC 2011-03-12 10:31:13
Программа кодирования : mkvmerge v3.4.0 ('Rapunzel') built on May 15 2010 09:38:20
Библиотека кодирования : libebml v0.8.0 + libmatroska v0.9.0
Видео
Идентификатор : 1
Формат : AVC
Формат/Информация : Advanced Video Codec
Профиль формата : [email protected]
Параметр CABAC формата : Да
Параметр ReFrames формата : 8 кадров
Идентификатор кодека : V_MPEG4/ISO/AVC
Продолжительность : 1 ч. 31 м.
Битрейт : 8625 Кбит/сек
Ширина : 986 пикселей
Высота : 720 пикселей
Соотношение сторон : 4:3
Режим частоты кадров : Постоянный
Частота кадров : 23,976 кадра/сек
Цветовое пространство : YUV
Субдискретизация насыщенности : 4:2:0
Битовая глубина : 8 бит
Тип развёртки : Прогрессивная
Бит/(Пиксели*Кадры) : 0.507
Размер потока : 5,52 Гбайт (91%)
Заголовок : Release for HDCLUB
Библиотека кодирования : x264 core 114 r1913 5fd3dce
Настройки программы : cabac=1 / ref=8 / deblock=1:-3:-3 / analyse=0x3:0x133 / me=umh / subme=10 / psy=1 / psy_rd=1.00:0.00 / mixed_ref=1 / me_range=32 / chroma_me=1 / trellis=2 / 8x8dct=1 / cqm=0 / deadzone=21,11 / fast_pskip=0 / chroma_qp_offset=-2 / threads=12 / sliced_threads=0 / nr=0 / decimate=1 / interlaced=0 / constrained_intra=0 / bframes=8 / b_pyramid=2 / b_adapt=2 / b_bias=0 / direct=3 / weightb=1 / open_gop=0 / weightp=2 / keyint=250 / keyint_min=23 / scenecut=40 / intra_refresh=0 / rc_lookahead=60 / rc=crf / mbtree=0 / crf=17.0 / qcomp=0.60 / qpmin=0 / qpmax=69 / qpstep=4 / vbv_maxrate=50000 / vbv_bufsize=62500 / crf_max=0.0 / nal_hrd=none / ip_ratio=1.40 / pb_ratio=1.30 / aq=1:0.70
Язык : English
Default : Нет
Forced : Нет
Аудио #1
Идентификатор : 2
Формат : AC-3
Формат/Информация : Audio Coding 3
Расширение режима : CM (complete main)
Параметр Endianness формата : Big
Идентификатор кодека : A_AC3
Продолжительность : 1 ч. 31 м.
Вид битрейта : Постоянный
Битрейт : 448 Кбит/сек
Каналы : 6 каналов
Расположение каналов : Front: L C R, Side: L R, LFE
Частота : 48,0 КГц
Битовая глубина : 16 бит
Метод сжатия : С потерями
Размер потока : 294 Мбайт (5%)
Заголовок : AC3 5.1 @ 448 kbps
Язык : Russian
Default : Да
Forced : Нет
Аудио #2
Идентификатор : 3
Формат : AC-3
Формат/Информация : Audio Coding 3
Расширение режима : CM (complete main)
Параметр Endianness формата : Big
Идентификатор кодека : A_AC3
Продолжительность : 1 ч. 31 м.
Вид битрейта : Постоянный
Битрейт : 224 Кбит/сек
Каналы : 1 канал
Расположение каналов : Front: C
Частота : 48,0 КГц
Битовая глубина : 16 бит
Метод сжатия : С потерями
Размер потока : 147 Мбайт (2%)
Заголовок : AC3 1.0 @ 224 kbps
Язык : Russian
Default : Нет
Forced : Нет
Меню
00:00:00.000 : en:00:00:00.000
00:08:01.690 : en:00:08:01.690
00:12:06.684 : en:00:12:06.684
00:17:05.566 : en:00:17:05.566
00:22:05.699 : en:00:22:05.699
00:27:41.660 : en:00:27:41.660
00:31:35.811 : en:00:31:35.811
00:37:12.313 : en:00:37:12.313
00:46:36.127 : en:00:46:36.127
00:49:43.063 : en:00:49:43.063
00:59:18.638 : en:00:59:18.638
01:06:17.098 : en:01:06:17.098
01:09:48.226 : en:01:09:48.226
01:18:32.625 : en:01:18:32.625
01:23:40.015 : en:01:23:40.015
01:28:22.672 : en:01:28:22.672

Скриншоты

Яндекс.Метрика
Рейтинг@Mail.ru