(Death Metal) Prohibitory - In Death We Trust - 1999/2003, FLAC (image+.cue), lossless

 

Создавать темы 22-Июн-2014 20:55

Prohibitory - In Death We Trust
Страна: Mexico
Жанр: Death Metal
Год издания: 1999/2003
Производитель диска: TOAJ Records [TOAJ DNA 002]
Аудиокодек: FLAC (*.flac)
Тип рипа: image+.cue
Битрейт аудио: lossless
Продолжительность: 0:38:56
Источник: Original CD
Сканы: да
Треклист:
01. A Requiem to a Lost Soul (Instrumental) / Morbid Dreams (From a Priest) (6:45)
02. Unknown Conquerer (3:59)
03. The Sign of Evil (5:08)
04. Black Ice (5:12)
05. Twighlight (4:04)
06. Cemetary Trees (3:31)
07. First Step in Beyond (3:40)
08. Mortuary (4:24)
09. Daferna (Instrumental) (2:13)

Отчёт ЕАС

Exact Audio Copy V1.0 beta 3 from 29. August 2011
EAC extraction logfile from 22. June 2014, 17:42
Prohibitory / In Death We Trust
Used drive : ASUS DRW-1612BL Adapter: 2 ID: 0
Read mode : SecureUtilize accurate stream : YesDefeat audio cache : YesMake use of C2 pointers : No
Read offset correction : 6Overread into Lead-In and Lead-Out : NoFill up missing offset samples with silence : YesDelete leading and trailing silent blocks : NoNull samples used in CRC calculations : YesUsed interface : Installed external ASPI interface
Used output format : User Defined EncoderSelected bitrate : 128 kBit/sQuality : HighAdd ID3 tag : NoCommand line compressor : C:\Program Files\EAC\Exact Audio Copy\Flac\flac.exeAdditional command line options : -V -8 -T "Date=%year%" -T "Genre=%genre%" %source%
TOC of the extracted CD
Track | Start | Length | Start sector | End sector --------------------------------------------------------- 1 | 0:00.00 | 6:44.56 | 0 | 30355 2 | 6:44.56 | 3:59.07 | 30356 | 48287 3 | 10:43.63 | 5:08.13 | 48288 | 71400 4 | 15:52.01 | 5:11.44 | 71401 | 94769 5 | 21:03.45 | 4:04.31 | 94770 | 113100 6 | 25:08.01 | 3:30.61 | 113101 | 128911 7 | 28:38.62 | 3:40.14 | 128912 | 145425 8 | 32:19.01 | 4:24.22 | 145426 | 165247 9 | 36:43.23 | 2:13.10 | 165248 | 175232
Range status and errors
Selected range
Filename C:\darkbrides\Prohibitory - In Death We Trust.wav
Peak level 100.0 % Extraction speed 7.9 X Range quality 100.0 % Test CRC B493FE7A Copy CRC B493FE7A Copy OK
No errors occurred
AccurateRip summary
Track 1 accurately ripped (confidence 1) [79A23C6B] (AR v1)Track 2 accurately ripped (confidence 1) [ED9F2547] (AR v1)Track 3 accurately ripped (confidence 1) [A178C874] (AR v1)Track 4 accurately ripped (confidence 1) [181A5562] (AR v1)Track 5 accurately ripped (confidence 1) [8224C0F1] (AR v1)Track 6 accurately ripped (confidence 1) [AE91D060] (AR v1)Track 7 accurately ripped (confidence 1) [39D69F21] (AR v1)Track 8 accurately ripped (confidence 1) [DA4A09A9] (AR v1)Track 9 accurately ripped (confidence 1) [CCEF1C4B] (AR v1)
All tracks accurately ripped
End of status report
==== Log checksum 5517AD086AE45E34FF0FE94CFBE50727BD69467BFB3C982E80BD8BB0DDE03099 ====
-

Яндекс.Метрика
Рейтинг@Mail.ru