Danko Jones. Southside Festival 2013 [2014, Hard rock/Garage rock/Garage punk/Blues rock, HDTV 720p]

 

Создавать темы 21-Июн-2014 20:11

Danko Jones. Southside Festival 2013
Жанр: Hard rock/Garage rock/Garage punk/Blues rock
Продолжительность: 00:43:01
Год выпуска: 2014
Описание: Выступление канадского rock бэнда Danko Jones на музыкальном фестивале Southside Festival в немецком Тутлингене 2013 jun22
Доп. информация: Собственная запись со спутникового канала EinsPlus 2014 jun20
Треклист: Had Enough
Play the Blues
First Date
Just a Beautiful Day
Full of Regret
Legs
Lovercall
Cadillac
Bring on the Mountain (Become the Mountain)
Качество: HDTV 720p
Контейнер: TS
Видео кодек: H.264
Аудио кодек: AC3
Видео: Mpeg4 AVC, 1280x720, 13700 kbps, 50 fps Progressive
Аудио: AC3, 448 kbps, 48 kHz, stereo
Аудио 2: MP2, 192 kbps, 48 kHz, stereo
Аудио 3: MP2, 192 kbps, 48 kHz, stereo

Отчёт MediaInfo / BDInfo

GeneralID : 1 (0x1)Complete name : D:\Downloads\Danko Jones. Southside Festival 2013.tsFormat : MPEG-TSFile size : 4.59 GiBDuration : 43mn 1sOverall bit rate mode : VariableOverall bit rate : 15.3 Mbps
VideoID : 5421 (0x152D)Menu ID : 1 (0x1)Format : AVCFormat/Info : Advanced Video CodecFormat profile : [email protected] settings, CABAC : YesFormat settings, ReFrames : 4 framesCodec ID : 27Duration : 43mn 1sBit rate : 13.7 MbpsWidth : 1 280 pixelsHeight : 720 pixelsDisplay aspect ratio : 16:9Frame rate : 50.000 fpsColor space : YUVChroma subsampling : 4:2:0Bit depth : 8 bitsScan type : ProgressiveBits/(Pixel*Frame) : 0.297Stream size : 4.11 GiB (90%)
Audio #1ID : 5422 (0x152E)Menu ID : 1 (0x1)Format : MPEG AudioFormat version : Version 1Format profile : Layer 2Codec ID : 3Duration : 43mn 1sBit rate mode : ConstantBit rate : 192 KbpsChannel(s) : 2 channelsSampling rate : 48.0 KHzCompression mode : LossyStream size : 59.1 MiB (1%)Language : German
Audio #2ID : 5423 (0x152F)Menu ID : 1 (0x1)Format : MPEG AudioFormat version : Version 1Format profile : Layer 2Codec ID : 3Duration : 43mn 1sBit rate mode : ConstantBit rate : 192 KbpsChannel(s) : 2 channelsSampling rate : 48.0 KHzCompression mode : LossyStream size : 59.1 MiB (1%)
Audio #3ID : 5426 (0x1532)Menu ID : 1 (0x1)Format : AC-3Format/Info : Audio Coding 3Mode extension : CM (complete main)Format settings, Endianness : BigCodec ID : 6Duration : 43mn 1sBit rate mode : ConstantBit rate : 448 KbpsChannel(s) : 2 channelsChannel positions : Front: L RSampling rate : 48.0 KHzBit depth : 16 bitsCompression mode : LossyStream size : 138 MiB (3%)Language : German
TextID : 5424 (0x1530)-100Menu ID : 1 (0x1)Format : TeletextLanguage : German
MenuID : 5420 (0x152C)Menu ID : 1 (0x1)Duration : 43mn 1sList : 5421 (0x152D) (AVC) / 5422 (0x152E) (MPEG Audio, German) / 5423 (0x152F) (MPEG Audio) / 5426 (0x1532) (AC-3, German) / 5424 (0x1530) ()Language : / German / / German

Скриншоты


Яндекс.Метрика
Рейтинг@Mail.ru