[ Сегодня на трекере фрилич! Идет свободное скачивание без начисления Download ]

(Symphonic Black Metal) [CD] Retribution - Corpus Antichristi Y3K - 2014, FLAC (image+.cue), lossless

 

Создавать темы 21-Июн-2014 20:09

Retribution / Corpus Antichristi Y3K
Жанр: Symphonic Black Metal
Носитель: CD
Страна-производитель диска: Czech Republic
Год издания: 2014
Издатель (лейбл): Pitch Black Records
Номер по каталогу: PBR 029
Страна: Spain
Аудиокодек: FLAC (*.flac)
Тип рипа: image+.cue
Битрейт аудио: lossless
Продолжительность: 56:19
Источник (релизер): CD из личной коллекции
Наличие сканов в содержимом раздачи: да
Треклист:
01. Arcarius Maleffico
02. Opus Serpentis
03. Corpus Antichristi Y3K
04. The One
05. The Promised Land
06. Uinseann`s Lullaby
07. Gobekli Tepe
08. The Ark Of Annihilation
09. Like A Lamb Among Wolves
10. Trinity A New Start
11. Retribution

Лог создания рипа

Exact Audio Copy V1.0 beta 3 from 29. August 2011
EAC extraction logfile from 21. June 2014, 16:59
Retribution / Corpus Antichristi Y3K
Used drive : HP DVD Writer 1170d Adapter: 0 ID: 0
Read mode : SecureUtilize accurate stream : YesDefeat audio cache : YesMake use of C2 pointers : No
Read offset correction : 6Overread into Lead-In and Lead-Out : NoFill up missing offset samples with silence : YesDelete leading and trailing silent blocks : NoNull samples used in CRC calculations : YesUsed interface : Native Win32 interface for Win NT & 2000
Used output format : User Defined EncoderSelected bitrate : 768 kBit/sQuality : HighAdd ID3 tag : NoCommand line compressor : C:\Program Files (x86)\Exact Audio Copy\FLAC\FLAC.EXEAdditional command line options : -V -8 -T "Date=%year%" -T "Genre=%genre%" -T"COMMENT=Ripped by Ungern666" -8 -V %source%
TOC of the extracted CD
Track | Start | Length | Start sector | End sector --------------------------------------------------------- 1 | 0:00.00 | 1:32.55 | 0 | 6954 2 | 1:32.55 | 4:28.13 | 6955 | 27067 3 | 6:00.68 | 5:36.55 | 27068 | 52322 4 | 11:37.48 | 5:10.08 | 52323 | 75580 5 | 16:47.56 | 5:08.35 | 75581 | 98715 6 | 21:56.16 | 5:14.03 | 98716 | 122268 7 | 27:10.19 | 4:50.50 | 122269 | 144068 8 | 32:00.69 | 5:53.28 | 144069 | 170571 9 | 37:54.22 | 6:15.19 | 170572 | 198715 10 | 44:09.41 | 5:18.18 | 198716 | 222583 11 | 49:27.59 | 6:52.15 | 222584 | 253498
Range status and errors
Selected range
Filename C:\EAC\Ungern666\Retribution - Corpus Antichristi Y3K.wav
Suspicious position 0:28:24 - 0:28:36 Suspicious position 0:28:38 - 0:28:39 Suspicious position 0:28:42 - 0:28:43
Peak level 100.0 % Extraction speed 1.1 X Range quality 99.6 % Test CRC 3C70060A Copy CRC 57FD0297 Copy finished
There were errors
AccurateRip summary
Track 1 not present in databaseTrack 2 not present in databaseTrack 3 not present in databaseTrack 4 not present in databaseTrack 5 not present in databaseTrack 6 not present in databaseTrack 7 not present in databaseTrack 8 not present in databaseTrack 9 not present in databaseTrack 10 not present in databaseTrack 11 not present in database
None of the tracks are present in the AccurateRip database
End of status report
==== Log checksum 445D46A45FDB2C8EC3E43D7B0DDCC3B08EBC09430F530631EF61381229F07358 ====
Материал предназначен для ознакомления!

Яндекс.Метрика
Рейтинг@Mail.ru