Хелло Жанин / Hallo Janine! (1939) DVDRip

 

Создавать темы 21-Июн-2014 15:35

-Хелло Жанин / Hallo Janine! (1939) DVDRip- Год выпуска: 1939
Жанр: Мьюзикл
Описание фильма:
Франция. Весь Париж собирается в варьете и смотрит танцевальное ревю с участием длинноногих красоток, одна из них Жаннин — одаренная танцовщица, исполняющая «Степ». Однажды она узнает, что ее лучшую подругу обманул и бросил некий граф Рене, она решает познакомиться с этим негодяем, влюбить в себя, а потом хладнокровно сказать ему прощай и тем самым отомстить за подругу.
Переодевшись в светскую даму, она приезжает на званую вечеринку, где и встречается с «коварным ловеласом» Рене и начинает заигрывать с ним, претворяя в жизнь свой коварный женский замысел. Милой девушке и невдомек, что она ошиблась и этот мужчина во фраке отнюдь не граф, а простой скромный композитор, пришедший на эту вечеринку с целью встретиться с популярным импресарио и издателем музыки…
Режиссер: Карл Боэс
Актеры: Марика Рёкк, Иоханнес Хестерс, Руди Годден, Мади Раль, Эльза Эльстер, Erich Ponto, Хуберт фон Майеринк, Ernst Dumcke, Edith Meinhard, Марьян Лекс, Marlise Ludwig, S.O. Schoening, Фриц Дрэгер, Пол Людвиг Фрэй, Hubert Guidoni, Эрик Харден, Альфред Карен, Melitta Klefer, Olga Limburg, Gertraude Listmann
Продолжительность: 1:27:16
Качество видео: DVDRip
Перевод: Двуголосый закадровый
Дата мировой премьеры: 1 июля 1939
Видеокодек: Xvid
Битрейт видео: ~1970 Кбит/сек
Размер кадра: 672 х 496
Звуковая дорожка 1 (руссская): MP3, 128 Кбит/сек, 2 канала
Звуковая дорожка 2 (оригинальная, немецкая): MP3, 128 Кбит/сек, 2 канала

MediaInfo

Полное имя : G:\Фильмы\Hello.Zhanin.1939.XviD.DVDRip.avi
Формат : AVI
Формат/Информация : Audio Video Interleave
Размер файла : 1,37 Гбайт
Продолжительность : 1 ч. 27 м.
Общий поток : 2240 Кбит/сек
Программа кодирования : VirtualDubMod 1.5.10.1 Рус от Stvens Inc.™ www.stvens.amillo.net (build 2366/release)
Библиотека кодирования : VirtualDubMod build 2366/release
Видео
Идентификатор : 0
Формат : MPEG-4 Visual
Профиль формата : Advanced [email protected]
Параметр BVOP формата : 2
Параметр QPel формата : Нет
Параметр GMC формата : Без точки перехода
Параметр матрицы формата : Default (MPEG)
Режим смешивания : Сжатый битовый поток
Идентификатор кодека : XVID
Идентификатор кодека/Подсказка : XviD
Продолжительность : 1 ч. 27 м.
Битрейт : 1970 Кбит/сек
Ширина : 672 пикселя
Высота : 496 пикселей
Соотношение сторон : 4:3
Частота кадров : 25,000 кадров/сек
Цветовое пространство : YUV
Субдискретизация насыщенности : 4:2:0
Битовая глубина : 8 бит
Тип развёртки : Прогрессивная
Метод сжатия : С потерями
Бит/(Пиксели*Кадры) : 0.236
Размер потока : 1,20 Гбайт (88%)
Библиотека кодирования : XviD 1.1.2 (UTC 2006-11-01)
Аудио #1
Идентификатор : 1
Формат : MPEG Audio
Версия формата : Version 1
Профиль формата : Layer 3
Режим : Joint stereo
Расширение режима : MS Stereo
Идентификатор кодека : 55
Идентификатор кодека/Подсказка : MP3
Продолжительность : 1 ч. 27 м.
Вид битрейта : Постоянный
Битрейт : 128 Кбит/сек
Каналы : 2 канала
Частота : 48,0 КГц
Метод сжатия : С потерями
Размер потока : 79,9 Мбайт (6%)
Выравнивание : Соединение по промежуткам
Продолжительность промежутка : 40 мс. (1,00 видеокадр)
Время предзагрузки промежутка : 504 мс.
Аудио #2
Идентификатор : 2
Формат : MPEG Audio
Версия формата : Version 1
Профиль формата : Layer 3
Режим : Joint stereo
Расширение режима : MS Stereo
Идентификатор кодека : 55
Идентификатор кодека/Подсказка : MP3
Продолжительность : 1 ч. 27 м.
Вид битрейта : Постоянный
Битрейт : 128 Кбит/сек
Каналы : 2 канала
Частота : 48,0 КГц
Метод сжатия : С потерями
Размер потока : 79,9 Мбайт (6%)
Выравнивание : Соединение по промежуткам
Продолжительность промежутка : 40 мс. (1,00 видеокадр)
Время предзагрузки промежутка : 504 мс.
Скриншоты:
Яндекс.Метрика
Рейтинг@Mail.ru