[ Сегодня на трекере фрилич! Идет свободное скачивание без начисления Download ]

Посредник/ The Go-Between (1970) DVDRip

 

Создавать темы 21-Июн-2014 15:32

-Посредник/ The Go-Between (1970) DVDRip- Год выпуска: 1970
Производство: Великобритания, EMI Films Ltd.
Жанр: Драма, мелодрама
Описание фильма:
Лео Колстон гостит у одноклассника Маркуса Модсли, в загородном доме в Норфолке. Там он знакомится с Мэриан — старшей сестрой Маркуса и по-детски влюбляется в неё. Мэриан помолвлена с богатым и знатным Хью Тримингемом, участником англо-бурской войны. Однажды Мэриан просит Лео отнести послание Тэду Бёрджесу — фермеру, с которым у неё тайный роман. Лео в замешательстве: он не хочет лгать Хью, но в то же время, не может отказать и Мэриан. Перипетии этой любовной истории накладывают неизгладимый отпечаток на всю последующую жизнь Лео.
Режиссер: Джозеф Лоузи
Актеры: Джули Кристи, Алан Бэйтс, Маргарет Лейтон, Майкл Редгрейв, Доминик Гард, Майкл Гоф, Эдвард Фокс, Ричард Гибсон, Саймон Хьюм-Кендалл, Роджер Ллойд-Пэк
Продолжительность: 01:56:23
Перевод: Профессиональный многоголосый
Видеокодек: XviD
Битрейт видео: ~2213 Кбит/с
Размер кадра: 720х384
Качество видео: DVDRip
Аудио:
1. АС3, 2 ch, 192 Кбит/с - русский
2. АС3, 2 ch, 192 Кбит/с - английский

MediaInfo:

Общее
Полное имя : D:\Посредник\Posrednik DVDRip 1970.avi
Формат : AVI
Формат/Информация : Audio Video Interleave
Профиль формата : OpenDML
Размер файла : 2,12 Гбайт
Продолжительность : 1 ч. 56 м.
Общий поток : 2615 Кбит/сек
Название фильма : The.Go-Between.1970.BDRip.All.Films
Режиссёр : DIABLO93
Жанр : Drama/Romance
Программа кодирования : VirtualDubMod 1.5.10.2 (build 2540/release)
Библиотека кодирования : VirtualDubMod build 2540/release
Видео
Идентификатор : 0
Формат : MPEG-4 Visual
Профиль формата : Advanced [email protected]
Параметр BVOP формата : 2
Параметр QPel формата : Нет
Параметр GMC формата : Без точки перехода
Параметр матрицы формата : Выборочная
Идентификатор кодека : XVID
Идентификатор кодека/Подсказка : XviD
Продолжительность : 1 ч. 56 м.
Битрейт : 2213 Кбит/сек
Ширина : 720 пикселей
Высота : 384 пикселя
Соотношение сторон : 1,875
Частота кадров : 24,000 кадра/сек
Цветовое пространство : YUV
Субдискретизация насыщенности : 4:2:0
Битовая глубина : 8 бит
Тип развёртки : Прогрессивная
Метод сжатия : С потерями
Бит/(Пиксели*Кадры) : 0.334
Размер потока : 1,80 Гбайт (85%)
Библиотека кодирования : XviD 65
Аудио #1
Идентификатор : 1
Формат : AC-3
Формат/Информация : Audio Coding 3
Расширение режима : CM (complete main)
Идентификатор кодека : 2000
Продолжительность : 1 ч. 56 м.
Вид битрейта : Постоянный
Битрейт : 192 Кбит/сек
Каналы : 2 канала
Расположение каналов : Front: L R
Частота : 48,0 КГц
Битовая глубина : 16 бит
Метод сжатия : С потерями
Размер потока : 160 Мбайт (7%)
Выравнивание : Разделение по промежуткам
Продолжительность промежутка : 42 мс. (1,00 видеокадр)
Время предзагрузки промежутка : 500 мс.
Аудио #2
Идентификатор : 2
Формат : AC-3
Формат/Информация : Audio Coding 3
Расширение режима : CM (complete main)
Идентификатор кодека : 2000
Продолжительность : 1 ч. 56 м.
Вид битрейта : Постоянный
Битрейт : 192 Кбит/сек
Каналы : 2 канала
Расположение каналов : Front: L R
Частота : 48,0 КГц
Битовая глубина : 16 бит
Метод сжатия : С потерями
Размер потока : 160 Мбайт (7%)
Выравнивание : Разделение по промежуткам
Продолжительность промежутка : 42 мс. (1,00 видеокадр)
Время предзагрузки промежутка : 500 мс.
Скриншоты:
Яндекс.Метрика
Рейтинг@Mail.ru