Колдун / Sorcerer (1977) BDRip

 

Создавать темы 21-Июн-2014 15:10

-Колдун / Sorcerer (1977) BDRip- Год выпуска: 1977
Производство: США, Film Properties International N.V.
Жанр: Боевик, триллер, приключения, драма
Описание фильма:
Нефтяная компания ищет водителей, готовых перевезти на грузовике груз со взрывчаткой. А четверо мужчин не могут вернуться в родные страны и по разным причинам вынуждены скрываться в Латинской Америке. Им нечего терять, но в случае успешного завершения операции каждый получит по 10 тысяч долларов и гражданство. Их ждут 200 миль дороги, где за каждым поворотом подстерегает опасность.
Фильм сопровождает великолепная музыка группы "Тэнджерин Дрим".
Режиссер: Уильям Фридкин
Актеры: Рой Шайдер, Бруно Кремер, Франсиско Рабаль, Амиду, Питер Кэпелл, Рамон Бьери, Питер Кэпелл, Карл Джон, Фридрих фон Ледебур, Чико Мартинес, Джо Спинелл
Продолжительность: 02:01:30
Перевод: Авторский одноголосый - (М. Иванов)
Видеокодек: XviD
Битрейт видео: ~1336 Кбит/с
Размер кадра: 720x408
Качество видео: BDRip
Аудиокодек: AC3 6 ch
Битрейт аудио: 384 Кбит/с

MediaInfo:

Общее
Полное имя : D:\Колдун\Koldun 1977 BDRip.avi
Формат : AVI
Формат/Информация : Audio Video Interleave
Размер файла : 1,47 Гбайт
Продолжительность : 2 ч. 1 м.
Общий поток : 1729 Кбит/сек
Программа кодирования : VirtualDubMod 1.5.10.3
Библиотека кодирования : VirtualDubMod build 2550/release
Видео
Идентификатор : 0
Формат : MPEG-4 Visual
Профиль формата : Advanced [email protected]
Параметр BVOP формата : 2
Параметр QPel формата : Нет
Параметр GMC формата : Без точки перехода
Параметр матрицы формата : Default (MPEG)
Идентификатор кодека : DX50
Идентификатор кодека/Подсказка : DivX 5
Продолжительность : 2 ч. 1 м.
Битрейт : 1336 Кбит/сек
Ширина : 720 пикселей
Высота : 408 пикселей
Соотношение сторон : 16:9
Частота кадров : 23,976 кадра/сек
Цветовое пространство : YUV
Субдискретизация насыщенности : 4:2:0
Битовая глубина : 8 бит
Тип развёртки : Прогрессивная
Метод сжатия : С потерями
Бит/(Пиксели*Кадры) : 0.190
Размер потока : 1,13 Гбайт (77%)
Библиотека кодирования : XviD 1.2.1 (UTC 2008-12-04)
Аудио
Идентификатор : 1
Формат : AC-3
Формат/Информация : Audio Coding 3
Расширение режима : CM (complete main)
Идентификатор кодека : 2000
Продолжительность : 2 ч. 1 м.
Вид битрейта : Постоянный
Битрейт : 384 Кбит/сек
Каналы : 6 каналов
Расположение каналов : Front: L C R, Side: L R, LFE
Частота : 48,0 КГц
Битовая глубина : 16 бит
Метод сжатия : С потерями
Размер потока : 334 Мбайт (22%)
Выравнивание : Разделение по промежуткам
Продолжительность промежутка : 42 мс. (1,00 видеокадр)
Время предзагрузки промежутка : 500 мс.
Скриншоты:
Яндекс.Метрика
Рейтинг@Mail.ru