[ Сегодня на трекере фрилич! Идет свободное скачивание без начисления Download ]

Принцесса Монако / Grace of Monaco (Оливье Даан / Olivier Dahan) [2014 г., Драма, мелодрама, биография, WEB-DLRip] Dub (Line)

 

Создавать темы 20-Июн-2014 22:43

-Принцесса Монако / Grace of Monaco-- Производство: Франция, США, Бельгия, Италия, Швейцария, Canal+ [fr], Lucky Red, Silver Reel, Stone Angels, TF1 Films Production, uMedia Family, YRF Entertainment
Год выпуска: 2014 г.
Жанр: Драма, мелодрама, биография
Продолжительность: 01:37:16
Мировая премьера: 14 мая 2014, ..
Российская премьера: 22 мая 2014, «UPI»
Дата выхода DVD: 29 июля 2014, «Lizard Cinema Trade», ...
Дата выхода Blu-Ray: 29 июля 2014, «Lizard Cinema Trade», ...
Перевод: Профессиональный (полное дублирование) [Чистый звук]
Режиссер: Оливье Даан / Olivier Dahan-В ролях: Николь Кидман, Пас Вега, Майло Вентимилья, Тим Рот, Паркер Поузи, Джеральдин Сомервилль, Дерек Джекоби, Фрэнк Ланджелла, Роджер Эштон-Гриффитс, Николас Фэррел-Описание: Весь Голливуд лежал у ее ног — роскошные виллы, oскаровские приемы и шикарные мужчины, но она выбрала королевский дворец, аристократические балы и благородного принца из маленькой страны недалеко от Франции. Она была королевой Голливуда, но предпочла стать Принцессой Монако.-
Качество видео: WEB-DLRip
Контейнер: AVI
Видео кодек: XviD
Аудио кодек: AC3
Видео: XviD, 1821 Кбит/с, 720x304 (3.35:1), 24 fps, 0.347 bit / pix
Аудио: 48 kHz, AC3, 2 ch, 192 Кбит/с Dub (Line)
Cубтитры: отсутствуют

Media Info

General
Complete name : W:\Princessa.2014.D.WEBRip.1400Mb.avi
Format : AVI
Format/Info : Audio Video Interleave
File size : 1.37 GiB
Duration : 1h 37mn
Overall bit rate : 2 022 Kbps
Writing application : VirtualDubMod 1.5.10.3 | www.virtualdub-fr.org || (build 2550/release)
Writing library : VirtualDubMod build 2550/release
Video
ID : 0
Format : MPEG-4 Visual
Format profile : Advanced [email protected]
Format settings, BVOP : Yes
Format settings, QPel : No
Format settings, GMC : No warppoints
Format settings, Matrix : Custom
Codec ID : XVID
Codec ID/Hint : XviD
Duration : 1h 37mn
Bit rate : 1 821 Kbps
Width : 720 pixels
Height : 304 pixels
Display aspect ratio : 2.35:1
Frame rate : 24.000 fps
Color space : YUV
Chroma subsampling : 4:2:0
Bit depth : 8 bits
Scan type : Progressive
Bits/(Pixel*Frame) : 0.347
Stream size : 1.24 GiB (90%)
Writing library : XviD 1.2.1 (UTC 2008-12-04)
Audio
ID : 1
Format : AC-3
Format/Info : Audio Coding 3
Mode extension : CM (complete main)
Codec ID : 2000
Duration : 1h 37mn
Bit rate mode : Constant
Bit rate : 192 Kbps
Channel(s) : 2 channels
Channel positions : Front: L R
Sampling rate : 48.0 KHz
Bit depth : 16 bits
Stream size : 134 MiB (9%)
Alignment : Split accross interleaves
Interleave, duration : 42 ms (1.00 video frame)
Interleave, preload duration : 500 ms

Скриншоты

Яндекс.Метрика
Рейтинг@Mail.ru