[ Сегодня на трекере фрилич! Идет свободное скачивание без начисления Download ]

Игра престолов / Game of Thrones (Сезон 4 / Полный /Серии: 10 из 10) (Алан Тейлор / Alan Taylor ...) [2014г., Фэнтези, Драма, Приключения, ..., HDTVRip] MVO (AlexFilm) + Original (Eng) + Sub (rus)

 

Создавать темы 20-Июн-2014 22:38

Игра престолов / Game of Thrones
«Победа или смерть»
- Русское название: Игра престолов
Оригинальное название: Game of Thrones
Страна: США, Великобритания
Год выпуска: 2014
Жанр: Фэнтези, Драма, Приключения ...-Озвучка: Студия
Перевод: Многоголосый закадровый, профессиональный
Оригинальный аудиопоток: английский-Перевод: Александр Митраков (Opel), Илья Белкин (Volverine73)
Озвучка: Евгения Тихонова, Анна Тух, Пётр Иващенко (Гланц), Александр Воронов, Александр Дасевич, Константин Погодаев, Михаил Суслов
Монтаж и сведение звука: Михаил Шорыгин-Премьера (мир): 17 апреля 2011, ...
Премьера (РФ): 8 сентября 2011
Релиз на DVD: 14 февраля 2013, «CP Дистрибуция», ...
Релиз на Blu-Ray: 3 апреля 2014, «CP Дистрибуция», ...-Режиссер: Алан Тейлор / Alan Taylor, Алекс Грейвз / Алекс Грейвз, Даниэль Минахан / Daniel Minahan ...
В главных ролях: Питер Динклэйдж (Тирион Ланнистер), Лена Хиди (Серсея Ланнистер), Николай Костер-Вальдау (Джейме Ланнистер), Эмилия Кларк (Дейенерис Таргариен), Эйдан Гиллен (Петир Бейлиш), Иэн Глен (сир Джорах Мормонт), Кит Харингтон (Джон Сноу), Лиам Каннингэм (сир Давос Сиворт), Айзек Хэмпстед-Райт (Бран Старк), Софи Тернер (Санса Старк), Мэйси Уильямс (Арья Старк), Элфи Аллен (Теон Грейджой), Джон Брэдли-Уэст (Сэмвел Тарли), Джек Глисон (король Джоффри Баратеон), Рори МакКанн (Сандор "Пёс" Клиган), Стивен Диллэйн (король Станнис Баратеон), Кэрис Ван Хаутен (Мелисандра), Джером Флинн (Бронн), Конлет Хилл (лорд Варис), Сибель Кекилли (Шая)
Роли дублировали: Нина Тобилевич, Пётр Иващенко, Ольга Зубкова, Владимир Герасимов, Александр Новиков ...-Описание фильма:
Ланнистеры воодушевлены резней в Речных землях, которую в народе стали называть Красной свадьбой. Во время массового убийства были уничтожены многие их заклятые враги Старки, и Ланнистеры надеются, что железный трон будет стоять крепко. Но теперь им придется сражаться со своим собственным самолюбием, а также не забывать про новые угрозы, которые двигаются с юга, севера и востока. Пока еще непобежденный Станнис восстанавливает свою армию в Драконьем Камне, большую опасность начинает представлять Оберин Мартелл, ненавидимый Ланнистерами "Красный Змей Дорна", который приезжает в Королевскую Гавань на свадьбу Джоффри и Маргери. И это не все, у Оберина в столице есть и другие дела. На севере, на Стене, численность армии Ночного дозора значительно меньше, чем армия одичалых Манса, с которой им предстоит сражаться. А за армией Манса следует еще более страшная угроза — белые ходоки. Но и это еще не все. Дейенерис Таргариен вместе со своими грозными драконами и армией Безупречных намерена захватить Миэрин, крупнейший город в бухте Работорговцев, где она определенно получит достаточное количество кораблей, чтобы доплыть до Вестероса и захватить железный трон.-Сезон: 4
Серии: 10 из 10 серий
Продолжительность: ~ 01:00:00 мин серия-Качество видео: HDTVRip
Формат: AVI
Видеокодек: XviD
Аудиокодек: Mp3
Видео: MPEG-4 Visual at 1306 Кбит/сек: 720 x 400 (1.800) at 23.976 fps, 0.19 Бит/Пиксели
Аудио Rus: MPEG Audio at 128 Кбит/сек: 2 канала, 48,0 КГц |AlexFilm|
Аудио Eng: MPEG Audio at 128 Кбит/сек: 2 канала, 48,0 КГц |Original|
Субтитры: русские вшитые (на дотракийскую и валирийскую речь)
- --

Список серий:

  • Два меча (Two Swords)
  • Лев и Роза (The Lion and the Rose)
  • Разрушительница оков (Breaker of Chains)
  • Верный клятве (Oathkeeper)
  • Первое из его имен (First of His Name)
  • Законы богов и людей (The Laws of Gods and Men)
  • Пересмешник (Mockingbird)
  • Гора и Змей (The Mountain and the Viper)
  • Дозорные на Стене (The watchers on the Wall)
  • Дети (The Children)
-

MediaInfo:

Общее
Полное имя                               : E:\_Сериалы\Игра престолов\Game of Thrones - Season 4 (AlexFilm) HDTVRip\Game.of.Thrones.s04e01.HDTVRip.Rus.Eng.AlexFilm.avi
Формат                                   : AVI
Формат/Информация                        : Audio Video Interleave
Размер файла                             : 680 Мбайт
Продолжительность                        : 1 ч. 0 м.
Общий поток                              : 1576 Кбит/сек
Название фильма                          : Game of Thrones 4x01 Two Swords
Программа кодирования                    : VirtualDubMod 1.5.10.2 (build 2542/release)
Видео
Идентификатор                            : 0
Формат                                   : MPEG-4 Visual
Профиль формата                          : Advanced [email protected]
Параметр BVOP формата                    : 1
Параметр QPel формата                    : Нет
Параметр GMC формата                     : Без точки перехода
Параметр матрицы формата                 : Default (MPEG)
Идентификатор кодека                     : XVID
Идентификатор кодека/Подсказка           : XviD
Продолжительность                        : 1 ч. 0 м.
Битрейт                                  : 1306 Кбит/сек
Ширина                                   : 720 пикселей
Высота                                   : 400 пикселей
Соотношение сторон                       : 16:9
Частота кадров                           : 23,976 кадра/сек
Цветовое пространство                    : YUV
Субдискретизация насыщенности            : 4:2:0
Битовая глубина                          : 8 бит
Тип развёртки                            : Прогрессивная
Метод сжатия                             : С потерями
Бит/(Пиксели*Кадры)                      : 0.189
Размер потока                            : 564 Мбайт (83%)
Библиотека кодирования                   : XviD 1.2.1 (UTC 2008-12-04)
Аудио #1
Идентификатор                            : 1
Формат                                   : MPEG Audio
Версия формата                           : Version 1
Профиль формата                          : Layer 3
Режим                                    : Joint stereo
Расширение режима                        : MS Stereo
Идентификатор кодека                     : 55
Идентификатор кодека/Подсказка           : MP3
Продолжительность                        : 1 ч. 0 м.
Вид битрейта                             : Постоянный
Битрейт                                  : 128 Кбит/сек
Каналы                                   : 2 канала
Частота                                  : 48,0 КГц
Метод сжатия                             : С потерями
Размер потока                            : 55,3 Мбайт (8%)
Выравнивание                             : Соединение по промежуткам
Продолжительность промежутка             : 42  мс. (1,00 видеокадр)
Время предзагрузки промежутка            : 504  мс.
Заголовок                                : Russian (AlexFilm)
Аудио #2
Идентификатор                            : 2
Формат                                   : MPEG Audio
Версия формата                           : Version 1
Профиль формата                          : Layer 3
Режим                                    : Joint stereo
Идентификатор кодека                     : 55
Идентификатор кодека/Подсказка           : MP3
Продолжительность                        : 1 ч. 0 м.
Вид битрейта                             : Постоянный
Битрейт                                  : 128 Кбит/сек
Каналы                                   : 2 канала
Частота                                  : 48,0 КГц
Метод сжатия                             : С потерями
Размер потока                            : 55,3 Мбайт (8%)
Выравнивание                             : Соединение по промежуткам
Продолжительность промежутка             : 42  мс. (1,00 видеокадр)
Время предзагрузки промежутка            : 504  мс.
Заголовок                                : English
-

Скриншот c названием фильма

-Скриншоты:
-

Еще

-Добавлена десятая, заключительная, серия четвертого сезона.
Яндекс.Метрика
Рейтинг@Mail.ru