[ Сегодня на трекере фрилич! Идет свободное скачивание без начисления Download ]

Кот Гром и заколдованный дом / The House of Magic (Джереми Дегрусон, Бен Стассен / Jeremy Degruson, Ben Stassen) [2013 г., мультфильм, семейный, BDRip-AVC] Dub [лицензия R5] + Original (Fre) [Jolly Roger]

 

Создавать темы 20-Июн-2014 02:00

-Кот Гром и заколдованный дом / The House of Magic- Год выпуска: 2013 г.
Производство: США, Бельгия
Жанр: мультфильм, семейный
Продолжительность: 01:25:08
Перевод: Профессиональный (полное дублирование) [лицензия R5]
Оригинальный аудиопоток: французский
Режиссер: Джереми Дегрусон, Бен Стассен / Jeremy Degruson, Ben Stassen
В ролях: Синда Адамс, Эдвард Эснер, Эмили Блант, Грант Джордж, Юджин Леви, Дэнни Манн, Юэн МакГрегор, Рон Перлман, Уильям Шетнер, Кифер Сазерленд
Описание: Любопытный рыжий кот попадает в дом старого фокусника и узнает секрет его трюков. Так начинается его знакомство с учеными зверями и живыми игрушками, а также невероятные приключения полные юмора и опасностей.Качество видео: BDRip-AVC
Контейнер: MKV
Видео кодек: H.264
Аудио кодек: AC3
Видео: MPEG4 Video (H264) 1024x576 23.976fps 1795 Kbps
Аудио: Dolby AC3 48000Hz 6ch 384 kbps / Русский
Аудио: Dolby AC3 48000Hz 2ch 256 kbps / Французский

Media Info / x.264

Log 2-nd pass

x264 [info]: using SAR=1/1
x264 [info]: using cpu capabilities: MMX2 SSE2Fast SSSE3 Cache64 SlowShuffle
x264 [info]: profile Main, level 4.1
x264 [info]: frame I:1227 Avg QP:12.30 size:110314
x264 [info]: frame P:31375 Avg QP:17.29 size: 20700
x264 [info]: frame B:89869 Avg QP:21.59 size: 4012
x264 [info]: consecutive B-frames: 4.5% 4.5% 14.3% 24.5% 12.1% 36.3% 1.8% 0.9% 1.1%
x264 [info]: mb I I16..4: 16.1% 0.0% 83.9%
x264 [info]: mb P I16..4: 12.0% 0.0% 0.0% P16..4: 32.3% 20.2% 11.0% 0.0% 0.0% skip:24.5%
x264 [info]: mb B I16..4: 1.2% 0.0% 0.0% B16..8: 21.7% 6.7% 1.8% direct: 1.8% skip:66.9% L0:38.8% L1:43.1% BI:18.0%
x264 [info]: direct mvs spatial:93.7% temporal:6.3%
x264 [info]: coded y,uvDC,uvAC intra: 59.9% 60.5% 33.7% inter: 12.2% 9.8% 3.3%
x264 [info]: i16 v,h,dc,p: 24% 23% 25% 28%
x264 [info]: i4 v,h,dc,ddl,ddr,vr,hd,vl,hu: 22% 21% 10% 6% 8% 7% 8% 7% 10%
x264 [info]: i8c dc,h,v,p: 34% 30% 20% 16%
x264 [info]: Weighted P-Frames: Y:3.0% UV:1.7%
x264 [info]: ref P L0: 58.7% 14.9% 12.1% 5.9% 3.7% 3.9% 0.8% 0.0%
x264 [info]: ref B L0: 82.9% 9.1% 5.2% 1.9% 0.9%
x264 [info]: ref B L1: 93.8% 6.2%
x264 [info]: kb/s:1793.84
x264 [total]: encoded 122471 frames, 1.35 fps, 1793.84 kb/s
General
Unique ID : 183262541153376019111362373731299280458 (0x89DF14E1B7BA04B488D4D0B29442C64A)
Complete name : I:\Kot.Grom.2013.H.264.BDRip-AVC.JRG.mkv
Format : Matroska
Format version : Version 4 / Version 2
File size : 1.45 GiB
Duration : 1h 25mn
Overall bit rate : 2 436 Kbps
Movie name : The Jolly Roger Release Group by
Encoded date : UTC 2014-06-19 14:32:23
Writing application : mkvmerge v6.9.1 ('Blue Panther') 32bit built on Apr 18 2014 18:15:44
Writing library : libebml v1.3.0 + libmatroska v1.4.1
Video
ID : 1
Format : AVC
Format/Info : Advanced Video Codec
Format profile : [email protected]
Format settings, CABAC : Yes
Format settings, ReFrames : 6 frames
Codec ID : V_MPEG4/ISO/AVC
Duration : 1h 25mn
Bit rate : 1 795 Kbps
Width : 1 024 pixels
Height : 576 pixels
Display aspect ratio : 16:9
Frame rate mode : Constant
Frame rate : 23.976 fps
Color space : YUV
Chroma subsampling : 4:2:0
Bit depth : 8 bits
Scan type : Progressive
Bits/(Pixel*Frame) : 0.127
Stream size : 1.04 GiB (72%)
Writing library : x264 core 130 r2273 b3065e6
Encoding settings : cabac=1 / ref=6 / deblock=0:0:0 / analyse=0x1:0x110 / me=umh / subme=10 / psy=0 / mixed_ref=1 / me_range=24 / chroma_me=1 / trellis=2 / 8x8dct=0 / cqm=0 / deadzone=21,11 / fast_pskip=0 / chroma_qp_offset=0 / threads=3 / lookahead_threads=1 / sliced_threads=0 / nr=0 / decimate=1 / interlaced=0 / bluray_compat=0 / constrained_intra=0 / bframes=8 / b_pyramid=2 / b_adapt=2 / b_bias=0 / direct=3 / weightb=1 / open_gop=0 / weightp=2 / keyint=250 / keyint_min=23 / scenecut=40 / intra_refresh=0 / rc_lookahead=50 / rc=2pass / mbtree=1 / bitrate=1795 / ratetol=1.0 / qcomp=0.60 / qpmin=0 / qpmax=69 / qpstep=4 / cplxblur=20.0 / qblur=0.5 / ip_ratio=1.40 / aq=1:1.00
Default : Yes
Forced : No
Audio #1
ID : 2
Format : AC-3
Format/Info : Audio Coding 3
Mode extension : CM (complete main)
Format settings, Endianness : Big
Codec ID : A_AC3
Duration : 1h 25mn
Bit rate mode : Constant
Bit rate : 384 Kbps
Channel(s) : 6 channels
Channel positions : Front: L C R, Side: L R, LFE
Sampling rate : 48.0 KHz
Bit depth : 16 bits
Compression mode : Lossy
Stream size : 234 MiB (16%)
Language : Russian
Default : Yes
Forced : No
Audio #2
ID : 3
Format : AC-3
Format/Info : Audio Coding 3
Mode extension : CM (complete main)
Format settings, Endianness : Big
Codec ID : A_AC3
Duration : 1h 25mn
Bit rate mode : Constant
Bit rate : 256 Kbps
Channel(s) : 2 channels
Channel positions : Front: L R
Sampling rate : 48.0 KHz
Bit depth : 16 bits
Compression mode : Lossy
Stream size : 156 MiB (11%)
Language : French
Default : No
Forced : No

Скриншоты

Яндекс.Метрика
Рейтинг@Mail.ru