Восьмерка (Алексей Учитель) [2014 г., боевик, мелодрама, WEB-DL, 720p] [iTunes]

 

Создавать темы 19-Июн-2014 07:16

-Восьмерка-- Производство: Россия, ТПО Рок
Режиссер: Алексей Учитель
Жанр: боевик, мелодрама
Год выпуска: 2014 г.
Продолжительность: 01:46:42
Российская премьера: 8 мая 2014, «DreamTeam»
Дата выхода DVD: 28 июня 2014, «CD Land», ...
В ролях: Артур Смольянинов, Вильма Кутавичюте, Алексей Манцыгин, Александр Новин, Артем Быстров,Павел Ворожцов, Захар Прилепин, Ирина Пегова, Сергей Пускепалис, Владимир Пирожок-Описание: Артур Смольянинов, Вильма Кутавичюте, Алексей Манцыгин, Александр Новин, Артем Быстров,Павел Ворожцов, Захар Прилепин, Ирина Пегова, Сергей Пускепалис, Владимир Пирожок-
Качество видео: WEB-DL
Контейнер: AVI
Стандарт разрешения: 720p
Видео кодек: H.264
Аудио кодек: AC3
Видео: MPEG-4 AVC, 3997 Кбит/с, 960x720, 25 fps, 0.231 bit / pix
Аудио: 48 kHz, AC3, 384 Kb/s (6 ch)

Media Info

General
Complete name : W:\Vosmerka.2014.O.WEB-DL.720p.mkv
Format : Matroska
File size : 2.56 GiB
Duration : 1h 21mn
Overall bit rate : 4 470 Kbps
Encoded date : UTC 2014-06-18 19:40:28
Writing application : mkvmerge v6.9.1 ('Blue Panther') 64bit built on Apr 18 2014 18:23:38
Writing library : libebml v1.3.0 + libmatroska v1.4.1
Video
ID : 1
Format : AVC
Format/Info : Advanced Video Codec
Format profile : [email protected]
Format settings, CABAC : No
Format settings, ReFrames : 2 frames
Muxing mode : Container [email protected]
Codec ID : V_MPEG4/ISO/AVC
Duration : 1h 21mn
Bit rate : 3 997 Kbps
Width : 960 pixels
Height : 720 pixels
Display aspect ratio : 16:9
Frame rate : 25.000 fps
Color space : YUV
Chroma subsampling : 4:2:0
Bit depth : 8 bits
Scan type : Progressive
Bits/(Pixel*Frame) : 0.231
Stream size : 2.28 GiB (89%)
Color primaries : BT.709-5, BT.1361, IEC 61966-2-4, SMPTE RP177
Transfer characteristics : BT.709-5, BT.1361
Matrix coefficients : BT.709-5, BT.1361, IEC 61966-2-4 709, SMPTE RP177
Audio
ID : 2
Format : AC-3
Format/Info : Audio Coding 3
Mode extension : CM (complete main)
Codec ID : A_AC3
Duration : 1h 21mn
Bit rate mode : Constant
Bit rate : 384 Kbps
Channel(s) : 6 channels
Channel positions : Front: L C R, Side: L R, LFE
Sampling rate : 48.0 KHz
Bit depth : 16 bits
Stream size : 225 MiB (9%)
Language : Russian
Menu
00:00:00.000 : en:Глава 1
00:05:10.000 : en:Глава 2
00:10:48.000 : en:Глава 3
00:14:58.000 : en:Глава 4
00:19:45.000 : en:Глава 5
00:25:49.000 : en:Глава 6
00:30:16.000 : en:Глава 7
00:35:20.000 : en:Глава 8
00:39:32.000 : en:Глава 9
00:44:07.000 : en:Глава 10
00:49:57.000 : en:Глава 11
00:55:52.000 : en:Глава 12
01:02:33.000 : en:Глава 13
01:08:11.000 : en:Глава 14
01:13:06.000 : en:Глава 15

Скриншоты

Яндекс.Метрика
Рейтинг@Mail.ru