[ Сегодня на трекере фрилич! Идет свободное скачивание без начисления Download ]

Беги без оглядки / Running Scared (Уэйн Крамер / Wayne Kramer) [2005 г., боевик, триллер, драма, криминал, BDRip, 1080p] Dub [лицензия] + Original (Eng) + Sub (Rus, Eng)

 

Создавать темы 18-Июн-2014 02:09

-Беги без оглядки / Running Scared
«Каждая пуля оставляет след»
-- Производство: США | New Line
Год выпуска: 2005 г.
Жанр: боевик, триллер, драма, криминал
Продолжительность: 02:01:35
Мировая премьера: 6 января 2006
Российская премьера: 16 марта 2006
Перевод: Профессиональный (полное дублирование) [R5]
Оригинальный аудиопоток: английский
Режиссер: Уэйн Крамер / Wayne Kramer-В ролях: Пол Уокер, Вера Фармига, Камерон Брайт, Алекс Нойбергер, Чазз Пальминтери, Карел Роден, Джон Ноубл, Ивана Миличевич, Джонни Месснер, Артур Дж. Наскарелла-Описание: После того как была сорвана сделка наркоторговцев, в результате чего погибли несколько продажных полицейских, мелкому гангстеру Джоуи нужно было избавиться от оружия, оставшегося на месте перестрелки.
Ситуация еще более осложнилась, когда сын его соседа завладел одним из пистолетов и выстрелил из него в своего отца. В итоге Джоуи вынужден был всю ночь разыскивать этого парнишку, чтобы вернуть пропажу. При этом ему пришлось скрываться от других гангстеров, а также от полиции…

-Качество видео: BDRip
Контейнер: MKV
Стандарт разрешения: 1080p
Видео кодек: H.264/AVC
Аудио кодек: DTS
Видео: 1920x816, 23.976 fps, ~10,0 Mbps avg
Аудио: Russian: 48 kHz, DTS, 3/2 (L,C,R,l,r) + LFE ch, ~768.00 kbps avg |Дубляж, R5|
Аудио #2: English: 48 kHz, DTS, 3/2 (L,C,R,l,r) + LFE ch, ~768.00 kbps avg
Cубтитры: русские, английские

Media Info

General
Format                           : Matroska
File size                        : 9.78 GiB
Duration                         : 2h 1mn
Overall bit rate                 : 11.5 Mbps
Movie name                       : Running Scared (2005) - Release for PIRAT.CA
Encoded date                     : UTC 2014-06-17 11:17:19
Writing application              : mkvmerge v6.0.0 ('Coming Up For Air') built on Jan 20 2013 09:52:00
Writing library                  : libebml v1.3.0 + libmatroska v1.4.0
Video
ID                               : 1
Format                           : AVC
Format/Info                      : Advanced Video Codec
Format profile                   : [email protected]
Format settings, CABAC           : Yes
Format settings, ReFrames        : 5 frames
Format settings, GOP             : M=6, N=9
Muxing mode                      : Container [email protected]
Codec ID                         : V_MPEG4/ISO/AVC
Duration                         : 2h 1mn
Bit rate                         : 10 000 Kbps
Width                            : 1 920 pixels
Height                           : 816 pixels
Display aspect ratio             : 2.35:1
Frame rate                       : 23.976 fps
Color space                      : YUV
Chroma subsampling               : 4:2:0
Bit depth                        : 8 bits
Scan type                        : Progressive
Bits/(Pixel*Frame)               : 0.266
Stream size                      : 8.30 GiB (85%)
Title                            : Running Scared (2005)
Writing library                  : x264 core 142 r2431 ac76440
Encoding settings                : cabac=1 / ref=5 / deblock=1:-3:-2 / analyse=0x3:0x113 / me=umh / subme=11 / psy=1 / psy_rd=1.00:0.00 / mixed_ref=1 / me_range=32 / chroma_me=1 / trellis=2 / 8x8dct=1 / cqm=0 / deadzone=21,11 / fast_pskip=1 / chroma_qp_offset=-2 / threads=12 / lookahead_threads=1 / sliced_threads=0 / nr=0 / decimate=1 / interlaced=0 / bluray_compat=0 / constrained_intra=0 / bframes=5 / b_pyramid=2 / b_adapt=1 / b_bias=0 / direct=2 / weightb=1 / open_gop=0 / weightp=2 / keyint=240 / keyint_min=23 / scenecut=40 / intra_refresh=0 / rc_lookahead=40 / rc=2pass / mbtree=1 / bitrate=10000 / ratetol=1.0 / qcomp=0.60 / qpmin=0 / qpmax=69 / qpstep=4 / cplxblur=20.0 / qblur=0.5 / vbv_maxrate=62500 / vbv_bufsize=78125 / nal_hrd=none / filler=0 / ip_ratio=1.40 / aq=1:1.00 / zones=164171,174912,q=40
Language                         : English
Audio #1
ID                               : 2
Format                           : DTS
Format/Info                      : Digital Theater Systems
Codec ID                         : A_DTS
Duration                         : 2h 1mn
Bit rate mode                    : Constant
Bit rate                         : 755 Kbps
Channel(s)                       : 6 channels
Channel positions                : Front: L C R, Side: L R, LFE
Sampling rate                    : 48.0 KHz
Bit depth                        : 24 bits
Stream size                      : 656 MiB (7%)
Title                            : DUB
Language                         : Russian
Audio #2
ID                               : 3
Format                           : DTS
Format/Info                      : Digital Theater Systems
Codec ID                         : A_DTS
Duration                         : 2h 1mn
Bit rate mode                    : Constant
Bit rate                         : 755 Kbps
Channel(s)                       : 6 channels
Channel positions                : Front: L C R, Side: L R, LFE
Sampling rate                    : 48.0 KHz
Bit depth                        : 24 bits
Stream size                      : 656 MiB (7%)
Title                            : Original
Language                         : English
Text #1
ID                               : 4
Format                           : UTF-8
Codec ID                         : S_TEXT/UTF8
Codec ID/Info                    : UTF-8 Plain Text
Language                         : Russian
Text #2
ID                               : 5
Format                           : UTF-8
Codec ID                         : S_TEXT/UTF8
Codec ID/Info                    : UTF-8 Plain Text
Language                         : English
Menu
00:00:00.000                     : en:Bad Deal
00:05:29.000                     : en:A Simple Task
00:10:00.000                     : en:Secret Stash
00:12:48.000                     : en:"the Duke Lives"
00:19:49.000                     : en:Domestic Dispute
00:25:07.000                     : en:Damage Control
00:30:56.000                     : en:The Dark Side
00:33:58.000                     : en:Bad Pimp
00:37:37.000                     : en:Let's Make a Deal
00:44:54.000                     : en:Hide and Seek
00:52:00.000                     : en:Thirsty for Truth
00:59:07.505                     : en:Father & Son
01:03:09.206                     : en:The Play Room
01:11:36.540                     : en:Maternal Instincts
01:19:10.140                     : en:Pep Talk
01:26:11.000                     : en:"Nobody Knows Nobody"
01:30:45.175                     : en:Showdown on Ice
01:43:23.009                     : en:Going Home
01:46:11.509                     : en:Pimpin' Ain't Easy
01:49:25.009                     : en:Family Reunion
01:54:07.000                     : en:End Credits

Скриншот c названием фильма

Скриншоты

Яндекс.Метрика
Рейтинг@Mail.ru