[ Сегодня на трекере фрилич! Идет свободное скачивание без начисления Download ]

Не навреди / Malignant (Брайан Авенет-Брэдли / Brian Avenet-Bradley) [2013 г., Ужасы, фантастика, триллер, WEB-DL] MVO (DeadSno, Antonio, den904)

 

Создавать темы 17-Июн-2014 11:41

-Не навреди / Malignant- Производство: США, Modernciné, Avenet Images Productions
Год выпуска: 2013 г.
Жанр: Ужасы, фантастика, триллер
Продолжительность: 01:24:49
Мировая премьера: 4 октября 2013
Перевод: Любительский (многоголосый, закадровый) [DeadSno, Antonio, den904]-Режиссер: Брайан Авенет-Брэдли / Brian Avenet-Bradley
В ролях: Гари Кейрнс II, Брэд Дуриф, Ник Нак, Сиенна Фарэлл, Стефан Авалос, Дженнифер Бланк, Дэна Даури, Таннер Дэвис, Кен Дикэйсон, Карла Дродж-Описание: Главный герой фильма, алкаголик, в одно прекрасное..или не очень утро...начинает понимать, что у него начались выпадения из реальности, во время которых им совершаются страшные преступления. Пытаясь понять, что с ним, он обращается к другу и постепенно клубок распутывается и ниточка ведет к...- -Качество видео: WEB-DL
Контейнер: AVI
Видео кодек: XviD
Аудио кодек: MP3
Видео: 640x352 (1.82:1), 23.976 fps, XviD MPEG-4 ~1012 kbps avg, 0.19 bit/pixel
Аудио: 48 kHz, MPEG Layer 3, 2 ch, ~128.00 kbps avg
Cубтитры: отсутствуют

Media Info

General
Complete name : D:\Malignant.L3.WEbRip.700mb.avi
Format : AVI
Format/Info : Audio Video Interleave
File size : 698 MiB
Duration : 1h 24mn
Overall bit rate : 1 150 Kbps
Writing application : VirtualDubModRus 1.5.10.2 (build 2542/release)
Writing library : VirtualDubMod build 2542/release
Video
ID : 0
Format : MPEG-4 Visual
Format profile : Advanced [email protected]
Format settings, BVOP : 2
Format settings, QPel : No
Format settings, GMC : No warppoints
Format settings, Matrix : Default (H.263)
Muxing mode : Packed bitstream
Codec ID : XVID
Codec ID/Hint : XviD
Duration : 1h 24mn
Bit rate : 1 012 Kbps
Width : 640 pixels
Height : 352 pixels
Display aspect ratio : 16:9
Frame rate : 23.976 fps
Color space : YUV
Chroma subsampling : 4:2:0
Bit depth : 8 bits
Scan type : Progressive
Compression mode : Lossy
Bits/(Pixel*Frame) : 0.187
Stream size : 614 MiB (88%)
Writing library : XviD 65
Audio
ID : 1
Format : MPEG Audio
Format version : Version 1
Format profile : Layer 3
Codec ID : 55
Codec ID/Hint : MP3
Duration : 1h 24mn
Bit rate mode : Constant
Bit rate : 128 Kbps
Channel(s) : 2 channels
Sampling rate : 48.0 KHz
Compression mode : Lossy
Stream size : 77.7 MiB (11%)
Alignment : Aligned on interleaves
Interleave, duration : 42 ms (1.00 video frame)
Interleave, preload duration : 504 ms
Writing library : LAME3.99r
Encoding settings : -m s -V 4 -q 2 -lowpass 17 -b 128

Скриншоты

Яндекс.Метрика
Рейтинг@Mail.ru