Призраки в Коннектикуте / The Haunting in Connecticut (Питер Корнвэлл / Peter Cornwell) [2009 г., Ужасы, триллер, драма, BDRip, 720p] Dub (Лицензия) + Original (Eng) + Sub (Rus, Eng)

 

Создавать темы 16-Июн-2014 20:49

-Призраки в Коннектикуте / The Haunting in Connecticut- Производство: США, Канада, Lionsgate, Gold Circle Films, Integrated Films & Management
Год выпуска: 2009 г.
Жанр: Ужасы, триллер, драма
Продолжительность: 01:42:50
Мировая премьера: 27 марта 2009
Российская премьера: 4 июня 2009, «West»
Дата выхода DVD: 28 сентября 2010, «West Video»
Дата выхода Blu-Ray: 5 октября 2010, «West Video»
Перевод: Профессиональный (полное дублирование) [Лицензия]
Оригинальный аудиопоток: английский-Режиссер: Питер Корнвэлл / Peter Cornwell
В ролях: Вирджиния Мэдсен, Кайл Галлнер, Элиас Котеас, Ти Вуд, Мартин Донован, Софи Найт, Аманда Крю, Эрик Дж. Берг, Джон Блютнер, Д.В. Браун-Описание: История о семье, вынужденной переехать ближе к клинике, где их сын лечится от рака. И без того испытывающие финансовое и моральное напряжение, они обнаруживают, что их недавно отреставрированный дом хранит мрачные тайны. После нескольких столкновений со сверхъестественными силами в доме, семья обращается за помощью к священнику…- -Качество видео: BDRip
Контейнер: MKV
Стандарт разрешения: 720p
Видео кодек: H.264
Аудио кодек: AC3 / DTS
Видео: 1280x544 (2.35:1), 6 850 Kbps, 23.976 fps, 0.410 bit/pix
Аудио: AC3, 6 ch, 48 kHz, 640 kbps [Rus, Dub]
Аудио #2: DTS, 6ch, 48 kHz, 1536 kbps [Eng, Original]
Cубтитры: Русские, английские
Формат субтитров: softsub (SRT)

Media Info

General
Unique ID : 252503824403248309341076712642002745555 (0xBDF677B7D92512FFBA1B4B5AAFAEF8D3)
Complete name : D:\Prizraki.V.Konnektikute.2009.BDRip.720p.mkv
Format : Matroska
Format version : Version 2
File size : 6.42 GiB
Duration : 1h 42mn
Overall bit rate : 8 979 Kbps
Encoded date : UTC 2011-01-20 19:38:19
Writing application : mkvmerge v2.9.7 ('Tenderness') built on Jul 1 2009 18:43:35
Writing library : libebml v0.7.7 + libmatroska v0.8.1
Video
ID : 1
Format : AVC
Format/Info : Advanced Video Codec
Format profile : [email protected]
Format settings, CABAC : Yes
Format settings, ReFrames : 9 frames
Codec ID : V_MPEG4/ISO/AVC
Duration : 1h 42mn
Bit rate : 6 850 Kbps
Width : 1 280 pixels
Height : 544 pixels
Display aspect ratio : 2.35:1
Frame rate mode : Constant
Frame rate : 23.976 fps
Color space : YUV
Chroma subsampling : 4:2:0
Bit depth : 8 bits
Scan type : Progressive
Bits/(Pixel*Frame) : 0.410
Stream size : 4.76 GiB (74%)
Writing library : x264 core 98 r1649 c54c47d
Encoding settings : cabac=1 / ref=9 / deblock=1:-3:-3 / analyse=0x3:0x113 / me=umh / subme=10 / psy=1 / psy_rd=1.00:0.00 / mixed_ref=1 / me_range=32 / chroma_me=1 / trellis=2 / 8x8dct=1 / cqm=0 / deadzone=21,11 / fast_pskip=0 / chroma_qp_offset=-4 / threads=3 / sliced_threads=0 / nr=0 / decimate=1 / interlaced=0 / constrained_intra=0 / bframes=9 / b_pyramid=2 / b_adapt=2 / b_bias=0 / direct=3 / weightb=1 / weightp=2 / keyint=250 / keyint_min=23 / scenecut=40 / intra_refresh=0 / rc_lookahead=40 / rc=2pass / mbtree=1 / bitrate=6850 / ratetol=1.0 / qcomp=0.60 / qpmin=10 / qpmax=51 / qpstep=4 / cplxblur=20.0 / qblur=0.5 / ip_ratio=1.40 / aq=1:1.00
Language : English
Default : Yes
Forced : No
Audio #1
ID : 2
Format : AC-3
Format/Info : Audio Coding 3
Mode extension : CM (complete main)
Format settings, Endianness : Big
Codec ID : A_AC3
Duration : 1h 42mn
Bit rate mode : Constant
Bit rate : 640 Kbps
Channel(s) : 6 channels
Channel positions : Front: L C R, Side: L R, LFE
Sampling rate : 48.0 KHz
Bit depth : 16 bits
Compression mode : Lossy
Stream size : 469 MiB (7%)
Title : AC3 - Дубляж
Language : Russian
Default : Yes
Forced : No
Audio #2
ID : 3
Format : DTS
Format/Info : Digital Theater Systems
Mode : 16
Format settings, Endianness : Big
Codec ID : A_DTS
Duration : 1h 42mn
Bit rate mode : Constant
Bit rate : 1 509 Kbps
Channel(s) : 6 channels
Channel positions : Front: L C R, Side: L R, LFE
Sampling rate : 48.0 KHz
Bit depth : 16 bits
Compression mode : Lossy
Stream size : 1.08 GiB (17%)
Title : DTS
Language : English
Default : No
Forced : No
Text #1
ID : 4
Format : UTF-8
Codec ID : S_TEXT/UTF8
Codec ID/Info : UTF-8 Plain Text
Language : Russian
Default : No
Forced : No
Text #2
ID : 5
Format : UTF-8
Codec ID : S_TEXT/UTF8
Codec ID/Info : UTF-8 Plain Text
Language : English
Default : No
Forced : No

Скриншоты

Яндекс.Метрика
Рейтинг@Mail.ru