Альфа и Омега 3 / Alpha and Omega 3: The Great Wolf Games (Ричард Рич / Richard Rich) [2014 г., Мультфильм, комедия, приключения, семейный, HDRip] DVO

 

Создавать темы 16-Июн-2014 16:43

-Альфа и Омега 3 / Alpha and Omega 3: The Great Wolf Games-- Производство: США, Crest Animation Productions
Режиссер: Ричард Рич / Richard Rich
Жанр: Мультфильм, комедия, приключения, семейный
Год выпуска: 2014 г.
Продолжительность: 00:45:03
Мировая премьера: 25 марта 2014, ...
Перевод: Любительский (двухголосый, закадровый) [rtys]
Роли озвучивали: Бен Дискин, Кейт Хиггинс, Блэки Роуз, Линдсей Торренс, Лиза Уэст, Трэйси Пфау, Бил Лэйдер, Шон Жерардо-Описание: Маленькие и отважные волчата решили устроить соревнования между собой. Они сумели включить в соревнования несколько различных видов спорта, таких как бег, бег с препятствиями и другие виды спорта из программы лёгкой атлетики. Волчата поделились на команды и начали играть, все знают, что победа достанется тем, кто больше всех старается. Все участники соревнований дружны между собой, никто никого не подставляет и соревнуется честно. Эта интересная картина даёт зрителям только положительные эмоции, она рассчитана на детей дошкольного возраста, им интересно будет посмотреть на то, как дружно и весело соревнуются юные волчата. Все выкладываются на полную мощь, но кто-то готов лучше, а кто-то хуже. Пусть победит сильнейший, под таким девизом проходят эти соревнования.-Сэмпл КиноПоиск
Качество видео: HDRip
Контейнер: AVI
Видео кодек: XviD
Аудио кодек: AC3
Видео: XviD, 1779 Кбит/с, 720x400, 23.976 fps, 0.258 bit / pix
Аудио: 48 kHz, AC3, 6 ch, 384 Кбит/с DVO
Cубтитры: отсутствуют

Media Info

General
Complete name : W:\Alpha.And.Omega.3.2014.L2.HDRip.avi
Format : AVI
Format/Info : Audio Video Interleave
File size : 700 MiB
Duration : 45mn 3s
Overall bit rate : 2 171 Kbps
Writing application : VirtualDubMod 1.5.10.3 | www.virtualdub-fr.org || (build 2550/release)
Writing library : VirtualDubMod build 2550/release
Video
ID : 0
Format : MPEG-4 Visual
Format profile : Advanced [email protected]
Format settings, BVOP : Yes
Format settings, QPel : No
Format settings, GMC : No warppoints
Format settings, Matrix : Custom
Codec ID : XVID
Codec ID/Hint : XviD
Duration : 45mn 3s
Bit rate : 1 779 Kbps
Width : 720 pixels
Height : 400 pixels
Display aspect ratio : 16:9
Frame rate : 23.976 fps
Color space : YUV
Chroma subsampling : 4:2:0
Bit depth : 8 bits
Scan type : Progressive
Bits/(Pixel*Frame) : 0.258
Stream size : 573 MiB (82%)
Writing library : XviD 1.2.1 (UTC 2008-12-04)
Audio
ID : 1
Format : AC-3
Format/Info : Audio Coding 3
Mode extension : CM (complete main)
Codec ID : 2000
Duration : 45mn 0s
Bit rate mode : Constant
Bit rate : 384 Kbps
Channel(s) : 6 channels
Channel positions : Front: L C R, Side: L R, LFE
Sampling rate : 48.0 KHz
Bit depth : 16 bits
Stream size : 124 MiB (18%)
Alignment : Split accross interleaves
Interleave, duration : 42 ms (1.00 video frame)
Interleave, preload duration : 500 ms

Скриншоты

Яндекс.Метрика
Рейтинг@Mail.ru