Сотня / The 100 / Сезон: 1 / полный / Серии: 1-13 из 13 (Дин Уайт / Dean White, Джон Беринг / John Behring, Милан Чейлов / Milan Cheylov) [2014 г., фантастика, WEB-DL, 720p] MVO [NewStudio] + Original (Eng)

 

Создавать темы 15-Июн-2014 15:09

-Сотня / The 100- Производство: США / Bonanza Productions, Alloy Entertainment, Warner Bros. Television
Жанр: фантастика
Год выпуска: 2014 г.
Мировая премьера: 19 марта 2014
Перевод: Профессиональный (многоголосый, закадровый) [NewStudio]
Оригинальный аудиопоток: английский-Режиссер: Дин Уайт / Dean White, Джон Беринг / John Behring, Милан Чейлов / Milan Cheylov
В ролях: Элиза Тейлор-Коттер, Мари Авгеропулос, Сачин Сахель, Линдси Морган, Женевьев Бюкнер, Ричард Хэрмон, Джарод Джозеф, Челси Рейст, Крис Браунинг, Джош Ссеттуба-Описание: События в сериале начинают разворачиваться по прошествии девяносто семи лет после того как всю цивилизацию уничтожила страшная атомная война.
Высоко в космосе на орбите Земли летает большой космический корабль, именно здесь находятся те, кто выжил после страшной катастрофы. Они единственные кто пережил этот ужасный катаклизм который устроило человечество. Именно с этого последнего пристанища людей на Землю отправляют космический челнок на котором находятся сто малолетних преступников…-Сезон: 1
Серии: 13 из 13 серий
Продолжительность: ~ 00:41:00 мин серия- -Качество видео: WEB-DL
Контейнер: MKV
Стандарт разрешения: 720p
Видео кодек: AVC
Аудио кодек: AC3
Видео: AVC, 1280х718 (16:9), 4097 Kbps, 23.976 fps, 0.186 bit/pixel
Аудио: Русский: AC3, 384 Kbps, 6 ch, 48.0 KHz [MVO]
Аудио #2: Английский: AC3, 384 Kbps, 6 ch, 48.0 KHz [Original]
Cубтитры: отсутствуют

Список серий

Пилот (Pilot)
Выжить на Земле (Earth Skills)
Умереть на Земле (Earth Kills)
Закон Мерфи (Murphy's Law)
Последний луч сумерек (Twilight's Last Gleaming)
Ради сестры (His Sister's Keeper)
Под давлением (Contents Under Pressure)
Однодневное путешествие (Day Trip)
День единства (Unity Day)
Я стал Смертью (I Am Become Death)
Тишина (The Calm)
Мы - земляне: часть 1 (We Are Grounders: Part 1)
Мы - земляне: часть 2 (We Are Grounders: Part 2)

Media Info

General
Unique ID                                : 221669728040484483721479496454066929918 (0xA6C40965275F02A399B436AA243C00FE)
Complete name                            : D:\Сотня (сезон 1) The 100 (2014) WEB-DL 720p - NewStudio\100.s01e01.WEBDL.720p.NewStudio.TV.mkv
Format                                   : Matroska
Format version                           : Version 2
File size                                : 1.44 GiB
Duration                                 : 41mn 25s
Overall bit rate                         : 4 964 Kbps
Encoded date                             : UTC 2014-03-20 22:15:40
Writing application                      : mkvmerge v2.9.9 ('Tutu') built on Nov 25 2009 21:13:32
Writing library                          : libebml v0.7.9 + libmatroska v0.8.1
Video
ID                                       : 1
Format                                   : AVC
Format/Info                              : Advanced Video Codec
Format profile                           : [email protected]
Format settings, CABAC                   : No
Format settings, ReFrames                : 2 frames
Codec ID                                 : V_MPEG4/ISO/AVC
Duration                                 : 41mn 25s
Bit rate                                 : 4 097 Kbps
Width                                    : 1 280 pixels
Height                                   : 718 pixels
Display aspect ratio                     : 16:9
Frame rate mode                          : Constant
Frame rate                               : 23.976 fps
Color space                              : YUV
Chroma subsampling                       : 4:2:0
Bit depth                                : 8 bits
Scan type                                : Progressive
Bits/(Pixel*Frame)                       : 0.186
Stream size                              : 1.19 GiB (83%)
Language                                 : English
Default                                  : No
Forced                                   : No
Color primaries                          : BT.709
Transfer characteristics                 : BT.709
Matrix coefficients                      : BT.709
Audio #1
ID                                       : 2
Format                                   : AC-3
Format/Info                              : Audio Coding 3
Mode extension                           : CM (complete main)
Format settings, Endianness              : Big
Codec ID                                 : A_AC3
Duration                                 : 41mn 25s
Bit rate mode                            : Constant
Bit rate                                 : 384 Kbps
Channel(s)                               : 6 channels
Channel positions                        : Front: L C R, Side: L R, LFE
Sampling rate                            : 48.0 KHz
Bit depth                                : 16 bits
Compression mode                         : Lossy
Stream size                              : 114 MiB (8%)
Language                                 : Russian
Default                                  : Yes
Forced                                   : Yes
Audio #2
ID                                       : 3
Format                                   : AC-3
Format/Info                              : Audio Coding 3
Mode extension                           : CM (complete main)
Format settings, Endianness              : Big
Codec ID                                 : A_AC3
Duration                                 : 41mn 25s
Bit rate mode                            : Constant
Bit rate                                 : 384 Kbps
Channel(s)                               : 6 channels
Channel positions                        : Front: L C R, Side: L R, LFE
Sampling rate                            : 48.0 KHz
Bit depth                                : 16 bits
Compression mode                         : Lossy
Stream size                              : 114 MiB (8%)
Language                                 : English
Default                                  : No
Forced                                   : No

Скриншоты

Внимание! Раздача ведётся путём добавления новых серий!

при каждом добавлении создётся новый торрент. Чтобы начать докачку новой серии, пользователям необходимо сделать следующее:
(1) остановить скачивание,
(2) удалить старый торрент у себя из клиента (старые серии удалять не надо),
(3) скачать новый торрент и запустить его у себя в клиенте, при этом указать клиенту путь в старую папку куда и должно происходить скачивание новых серий.
Ваш клиент при этом должен произвести хеширование (проверку) старой папки и будет докачивать только те серии которых у вас ещё нет. Старые серии при этом не удаляются, а продолжают раздаваться!
Eсли вы уже удалили старые серии, то предотвратить повторную закачку старых серий можно, отжав галочку в соответствующих местах при запуске нового торрента. (по возможности, желательно не удалять старые серии как можно дольше чтобы релизёр не столько продолжал раздавать старые серии, а смог сконцентрироваться на новых)
Добавлена тринадцатая, заключительная, серия первого сезона
Яндекс.Метрика
Рейтинг@Mail.ru