Танцуй отсюда! / Cuban Fury (Джеймс Гриффитс / James Griffiths) [2014 г., Комедия, HDRip] VO (PashaUP)

 

Создавать темы 15-Июн-2014 15:07

-Танцуй отсюда! / Cuban Fury-«Реальные мужики зажигают»- Производство: Великобритания, Big Talk Productions
Год выпуска: 2014 г.
Жанр: Комедия
Продолжительность: 01:37:53
Мировая премьера: 13 февраля 2014
Российская премьера: 24 апреля 2014, «Вольга»
Дата выхода DVD: 23 июня 2014, «Вольга»
Перевод: Любительский (одноголосый, закадровый) [PashaUP]-Режиссер: Джеймс Гриффитс / James Griffiths
В ролях: Ник Фрост, Рашида Джонс, Крис О’Дауд, Иэн МакШейн, Бен Рэдклифф, Изабелла Стэйнбарт, Брэндон Робинсон, Луис Кайриаку, Киран Гаффни, Стив Орам-Описание: Чтобы завоевать сердце прекрасной начальницы, одному в меру упитанному мужчине предстоит растрясти свои таланты в соревновании на самый зажигательный танец. Однако у него есть соперник, который не постесняется опуститься до очень грязных приемов.- -Качество видео: HDRip
Контейнер: AVI
Видео кодек: XviD
Аудио кодек: AC3
Видео: 720x304 (2.37:1), 23.976 fps, XviD build 50 ~1605 kbps avg, 0.31 bit/pixel
Аудио: 48 kHz, AC3 Dolby Digital, 3/2 (L,C,R,l,r) + LFE ch, ~384 kbps
Cубтитры: отсутствуют

Media Info

General
Complete name : D:\Cuban.Fury.2014.L1.HDRip.avi
Format : AVI
Format/Info : Audio Video Interleave
File size : 1.37 GiB
Duration : 1h 37mn
Overall bit rate : 1 999 Kbps
Writing application : VirtualDubMod 1.5.10.3 | www.virtualdub-fr.org || (build 2550/release)
Writing library : VirtualDubMod build 2550/release
Video
ID : 0
Format : MPEG-4 Visual
Format profile : Advanced [email protected]
Format settings, BVOP : 2
Format settings, QPel : No
Format settings, GMC : No warppoints
Format settings, Matrix : Default (H.263)
Codec ID : XVID
Codec ID/Hint : XviD
Duration : 1h 37mn
Bit rate : 1 606 Kbps
Width : 720 pixels
Height : 304 pixels
Display aspect ratio : 2.35:1
Frame rate : 23.976 fps
Color space : YUV
Chroma subsampling : 4:2:0
Bit depth : 8 bits
Scan type : Progressive
Compression mode : Lossy
Bits/(Pixel*Frame) : 0.306
Stream size : 1.10 GiB (80%)
Writing library : XviD 1.2.1 (UTC 2008-12-04)
Audio
ID : 1
Format : AC-3
Format/Info : Audio Coding 3
Mode extension : CM (complete main)
Format settings, Endianness : Big
Codec ID : 2000
Duration : 1h 37mn
Bit rate mode : Constant
Bit rate : 384 Kbps
Channel(s) : 6 channels
Channel positions : Front: L C R, Side: L R, LFE
Sampling rate : 48.0 KHz
Bit depth : 16 bits
Compression mode : Lossy
Stream size : 269 MiB (19%)
Alignment : Split accross interleaves
Interleave, duration : 42 ms (1.00 video frame)
Interleave, preload duration : 500 ms

Скриншоты

Яндекс.Метрика
Рейтинг@Mail.ru