Любовь между каплями дождя / Lasky mezi kapkami deste (Карел Кахиня / Karel Kachyna) [1979, Чехословакия, мелодрама, комедия, HDTVRip 720p] VO (Ирина Гусева) + Sub Eng + Original Cze

 

Создавать темы 14-Июн-2014 16:25

Любовь между каплями дождя / Lásky mezi kapkami deště
Страна: Чехословакия
Жанр: мелодрама, комедия
Год выпуска: 1979
Продолжительность: 02:01:20
Перевод: Одноголосый закадровый (Ирина Гусева)
Cубтитры: английские
Оригинальная аудиодорожка: чешский
Режиссер: Карел Кахиня / Karel Kachyna
В ролях: Эдуард Цупак, Владимир Меншик, Лукаш Вацулик, Михал Длоуги, Ян Грушинский, Дэвид Влчек, Zlata Adamovská, Lucie Zednícková, Эва Якоубкова, Тереза Герц
Описание: Действие происходит в 1930 годы и рассказано глазами 16-летнего мальчика Кайды, который вырос в районе Жижкове в Праге. Здесь он потерял мать и остался жить вместе со старшим братом Пепе и отцом. Здесь он хулиганил вместе с жижковской молодежной бандой, затем познал любовь со взрослой женщиной из кабаре и влюбился в девушку Паю. Но не все облачно было в его жизни — ему пришлось пережить ревность, когда он знакомит Паю со своим старшим братом.
Доп. информация: за русскую дорожку спасибо автору этой раздачи - http:///*spam*//forum/viewtopic.php?t=2835048
Сэмпл: http://multi-up.com/980197

Тип релиза: HDTVRip 720p
Контейнер: MKV
Видео: H.264/AVC, 960x720, 4:3, 25.00fps, 4358kbps
Аудио: Русский, AC3 2.0, 192kbps, 48 kHz
Аудио 2: Чешский, AC3 2.0, 192kbps, 48 kHz
Формат субтитров: softsub (SRT)

MediaInfo

Complete name : V:\=Video=\Films\чехословакия\Lasky.mezi.kapkami.deste.1979.720p.HDTV.rus.cze.mkv
Format : Matroska
Format version : Version 4 / Version 2
File size : 4.10 GiB
Duration : 2h 1mn
Overall bit rate : 4 838 Kbps
Movie name : Lásky mezi kapkami deště (1979)
Encoded date : UTC 2014-06-14 10:31:58
Writing application : mkvmerge v7.0.0 ('Where We Going') 32bit built on Jun 9 2014 15:08:34
Writing library : libebml v1.3.0 + libmatroska v1.4.1
Video
ID : 1
Format : AVC
Format/Info : Advanced Video Codec
Format profile : [email protected]
Format settings, CABAC : Yes
Format settings, ReFrames : 8 frames
Codec ID : V_MPEG4/ISO/AVC
Duration : 2h 1mn
Bit rate : 4 358 Kbps
Width : 960 pixels
Height : 720 pixels
Display aspect ratio : 4:3
Frame rate mode : Constant
Frame rate : 25.000 fps
Color space : YUV
Chroma subsampling : 4:2:0
Bit depth : 8 bits
Scan type : Progressive
Bits/(Pixel*Frame) : 0.252
Stream size : 3.69 GiB (90%)
Writing library : x264 core 142 r2431 ac76440
Encoding settings : cabac=1 / ref=8 / deblock=1:-3:-3 / analyse=0x3:0x133 / me=umh / subme=10 / psy=1 / psy_rd=1.00:0.15 / mixed_ref=1 / me_range=24 / chroma_me=1 / trellis=2 / 8x8dct=1 / cqm=0 / deadzone=21,11 / fast_pskip=1 / chroma_qp_offset=-3 / threads=6 / lookahead_threads=1 / sliced_threads=0 / nr=0 / decimate=0 / interlaced=0 / bluray_compat=0 / constrained_intra=0 / bframes=8 / b_pyramid=2 / b_adapt=2 / b_bias=0 / direct=3 / weightb=1 / open_gop=0 / weightp=2 / keyint=250 / keyint_min=25 / scenecut=40 / intra_refresh=0 / rc_lookahead=60 / rc=crf / mbtree=1 / crf=17.0 / qcomp=0.70 / qpmin=0 / qpmax=69 / qpstep=4 / ip_ratio=1.40 / aq=1:0.80
Language : Czech
Default : Yes
Forced : No
Audio #1
ID : 2
Format : AC-3
Format/Info : Audio Coding 3
Mode extension : CM (complete main)
Format settings, Endianness : Big
Codec ID : A_AC3
Duration : 2h 1mn
Bit rate mode : Constant
Bit rate : 192 Kbps
Channel(s) : 2 channels
Channel positions : Front: L R
Sampling rate : 48.0 KHz
Bit depth : 16 bits
Compression mode : Lossy
Stream size : 167 MiB (4%)
Title : VO (Ирина Гусева)
Language : Russian
Default : Yes
Forced : No
Audio #2
ID : 3
Format : AC-3
Format/Info : Audio Coding 3
Mode extension : CM (complete main)
Format settings, Endianness : Big
Codec ID : A_AC3
Duration : 2h 1mn
Bit rate mode : Constant
Bit rate : 192 Kbps
Channel(s) : 2 channels
Channel positions : Front: L R
Sampling rate : 48.0 KHz
Bit depth : 16 bits
Compression mode : Lossy
Stream size : 167 MiB (4%)
Language : Czech
Default : No
Forced : No
Text
ID : 4
Format : UTF-8
Codec ID : S_TEXT/UTF8
Codec ID/Info : UTF-8 Plain Text
Title : [Skritek]
Language : English
Default : No
Forced : No

Скриншоты


Яндекс.Метрика
Рейтинг@Mail.ru