[ Сегодня на трекере фрилич! Идет свободное скачивание без начисления Download ]

Системная ошибка - Когда Инге танцует / Systemfehler - Wenn Inge tanzt (Вольфганг Гроос / Wolfgang Groos) [2013 г., Комедия, музыка, HDRip] MVO (Е. Просвирина, Г. Васюкова, Р. Камонов) + Original (Ger)

 

Создавать темы 14-Июн-2014 04:48

-Системная ошибка - Когда Инге танцует / Systemfehler - Wenn Inge tanzt- Производство: Германия, Splendid Produktion
Год выпуска: 2013 г.
Жанр: Комедия, музыка
Продолжительность: 01:42:11
Мировая премьера: 11 июля 2013
Перевод: Любительский (многоголосый, закадровый) [Е. Просвирина, Г. Васюкова, Р. Камонов]
Оригинальный аудиопоток: немецкий-Режиссер: Вольфганг Гроос / Wolfgang Groos
В ролях: Тим Оливер Шульц, Паула Каленберг, Петер Краус, Константин фон Ящерофф, Тино Мевес, Тандо Валбаум, Юрген Таррах, Дагмар фон Курмин, Матиас Кеберлин, Анна Кеуль-Описание: Рассказ пойдет о школьной рок-группе Системная ошибка / Systemfehler, упорно карабкающейся на вершины музыкального Олимпа. Благодаря их хиту под названием "Когда Инге танцует" Максу - солисту группы - предлагают заключить контракт со студией, а до этого выступить на концерте известных рокеров. Незадолго до выступления гитарист группы получает серьезную травму и не может играть. Единственный выход из ситуации - попросить талантливую гитаристку Инге из их класса заменить его на концерте. Но вот незадача: это именно та Инге, о которой поется в их песне, и она намерена запретить Максу и компании ее исполнять. Немецкий панк-рок, юмор и немного романтики.-Качество видео: HDRip
Контейнер: AVI
Видео кодек: XviD
Аудио кодек: AC3
Видео: 720x304 (2.37:1), 24.000 fps, XviD build 50 ~1975 kbps avg, 0.38 bit/pixel
Аудио: 48 kHz, AC3 Dolby Digital, 3/2 (L,C,R,l,r) + LFE ch, ~448 kbps [Rus, MVO]
Аудио #2: 48 kHz, AC3 Dolby Digital, 3/2 (L,C,R,l,r) + LFE ch, ~448 kbps [Ger, Original]
Cубтитры: отсутствуют

Media Info

General
Complete name : D:\Systemfehler.Wenn.Inge.Tanzt.2013.HDRip.avi
Format : AVI
Format/Info : Audio Video Interleave
Format profile : OpenDML
File size : 2.05 GiB
Duration : 1h 42mn
Overall bit rate : 2 878 Kbps
Writing application : VirtualDubMod 1.5.10.3 | www.virtualdub-fr.org || (build 2550/release)
Writing library : VirtualDubMod build 2550/release
Video
ID : 0
Format : MPEG-4 Visual
Format profile : Advanced [email protected]
Format settings, BVOP : 2
Format settings, QPel : No
Format settings, GMC : No warppoints
Format settings, Matrix : Custom
Codec ID : XVID
Codec ID/Hint : XviD
Duration : 1h 42mn
Bit rate : 1 963 Kbps
Width : 720 pixels
Height : 304 pixels
Display aspect ratio : 2.35:1
Frame rate : 24.000 fps
Color space : YUV
Chroma subsampling : 4:2:0
Bit depth : 8 bits
Scan type : Progressive
Compression mode : Lossy
Bits/(Pixel*Frame) : 0.374
Stream size : 1.40 GiB (68%)
Writing library : XviD 1.2.1 (UTC 2008-12-04)
Audio #1
ID : 1
Format : AC-3
Format/Info : Audio Coding 3
Mode extension : CM (complete main)
Format settings, Endianness : Big
Codec ID : 2000
Duration : 1h 42mn
Bit rate mode : Constant
Bit rate : 448 Kbps
Channel(s) : 6 channels
Channel positions : Front: L C R, Side: L R, LFE
Sampling rate : 48.0 KHz
Bit depth : 16 bits
Compression mode : Lossy
Stream size : 327 MiB (16%)
Alignment : Split accross interleaves
Interleave, duration : 42 ms (1.00 video frame)
Interleave, preload duration : 500 ms
Audio #2
ID : 2
Format : AC-3
Format/Info : Audio Coding 3
Mode extension : CM (complete main)
Format settings, Endianness : Big
Codec ID : 2000
Duration : 1h 42mn
Bit rate mode : Constant
Bit rate : 448 Kbps
Channel(s) : 6 channels
Channel positions : Front: L C R, Side: L R, LFE
Sampling rate : 48.0 KHz
Bit depth : 16 bits
Compression mode : Lossy
Stream size : 327 MiB (16%)
Alignment : Split accross interleaves
Interleave, duration : 42 ms (1.00 video frame)
Interleave, preload duration : 500 ms

Скриншоты

Яндекс.Метрика
Рейтинг@Mail.ru