Ничего себе поездочка 3 / Joy Ride 3 (Деклан О’Брайэн / Declan O'Brien) [2014 г., Триллер, HDRip] VO (datynet) + Original (Eng)

 

Создавать темы 13-Июн-2014 03:31

-Ничего себе поездочка 3 / Joy Ride 3- Производство: США, WT Canada Productions
Год выпуска: 2014 г.
Жанр: Триллер
Продолжительность: 01:36:23
Мировая премьера: 9 июля 2014
Перевод: Любительский (одноголосый, закадровый) [datynet]
Оригинальный аудиопоток: английский-Режиссер: Деклан О’Брайэн / Declan O'Brien
В ролях: Кирстен Праут, Бен Холлингсворт, Кен Кирзингер, Дин Армстронг, Джесси Хатч, Лила Саваста, Джанпаоло Венута, Джейк Мэнли, Сара Митич, Дж. Адам Браун-Описание: Команда отчаяных гонщиков отправляется в Канаду, чтобы участвовать в Ралли 1000. На своему пути они подрезают грузовик, следующий по трассе 17 - заброшенной дороге, которую людская молва окрестила Аллеей Убийств. И вот уже цель поездки отходит на второй план, и начинается гонка за жизнь.-Качество видео: HDRip
Контейнер: AVI
Видео кодек: XviD
Аудио кодек: AC3
Видео: 720x400 (1.80:1), 23.976 fps, XviD build 50 ~1647 kbps avg, 0.24 bit/pixel
Аудио: 44.1 kHz, AC3 Dolby Digital, 2/0 (L,R) ch, ~192 kbps [Rus, VO]
Аудио #2: 48 kHz, AC3 Dolby Digital, 2/0 (L,R) ch, ~192 kbps [Eng, Original]
Cубтитры: отсутствуют

Media Info

General
Complete name : D:\Joy.Ride.3.2014.HDRip.1400Mb.avi
Format : AVI
Format/Info : Audio Video Interleave
File size : 1.37 GiB
Duration : 1h 35mn
Overall bit rate : 2 046 Kbps
Writing application : VirtualDubMod 1.5.10.3 | www.virtualdub-fr.org || (build 2550/release)
Writing library : VirtualDubMod build 2550/release
Video
ID : 0
Format : MPEG-4 Visual
Format profile : Advanced [email protected]
Format settings, BVOP : 2
Format settings, QPel : No
Format settings, GMC : No warppoints
Format settings, Matrix : Default (H.263)
Codec ID : XVID
Codec ID/Hint : XviD
Duration : 1h 35mn
Bit rate : 1 648 Kbps
Width : 720 pixels
Height : 400 pixels
Display aspect ratio : 16:9
Frame rate : 23.976 fps
Color space : YUV
Chroma subsampling : 4:2:0
Bit depth : 8 bits
Scan type : Progressive
Compression mode : Lossy
Bits/(Pixel*Frame) : 0.239
Stream size : 1.10 GiB (81%)
Writing library : XviD 1.2.1 (UTC 2008-12-04)
Audio #1
ID : 1
Format : AC-3
Format/Info : Audio Coding 3
Mode extension : CM (complete main)
Format settings, Endianness : Big
Codec ID : 2000
Duration : 1h 35mn
Bit rate mode : Constant
Bit rate : 192 Kbps
Channel(s) : 2 channels
Channel positions : Front: L R
Sampling rate : 44.1 KHz
Bit depth : 16 bits
Compression mode : Lossy
Stream size : 132 MiB (9%)
Alignment : Split accross interleaves
Interleave, duration : 42 ms (1.00 video frame)
Interleave, preload duration : 500 ms
Audio #2
ID : 2
Format : AC-3
Format/Info : Audio Coding 3
Mode extension : CM (complete main)
Format settings, Endianness : Big
Codec ID : 2000
Duration : 1h 35mn
Bit rate mode : Constant
Bit rate : 192 Kbps
Channel(s) : 2 channels
Channel positions : Front: L R
Sampling rate : 48.0 KHz
Bit depth : 16 bits
Compression mode : Lossy
Stream size : 132 MiB (9%)
Alignment : Split accross interleaves
Interleave, duration : 42 ms (1.00 video frame)
Interleave, preload duration : 500 ms

Скриншоты

Яндекс.Метрика
Рейтинг@Mail.ru