Игры преисподней / Mine Games (Ричард Грэй / Richard Gray) [2012 г., Триллер, HDRip] MVO (Кинопоказ) + Original (Eng)

 

Создавать темы 13-Июн-2014 03:30

-Игры преисподней / Mine Games- Производство: США, Vitamin A Films, Yellow Brick Films
Год выпуска: 2012 г.
Жанр: Триллер
Продолжительность: 01:28:09
Мировая премьера: 16 августа 2012
Перевод: Профессиональный (многоголосый, закадровый) [Кинопоказ]
Оригинальный аудиопоток: английский-Режиссер: Ричард Грэй / Richard Gray
В ролях: Бриана Эвиган, Джулианна Гуилл, Ребекка Да Коста, Рафи Гаврон, Итан Пек, Джозеф Кросс, Алекс Мераз, Линдсэй Ламб, Michael Guillod-Описание: Несколько молодых друзей, во время активного отдыха, находят вход в заброшенную шахту, войдя в которую они переступают черту времени, попав в прошлое. Вскоре они узнают, что один из них станет причиной смерти остальных. С этого момента герои пытаются повлиять на будущее…-Качество видео: HDRip
Контейнер: AVI
Видео кодек: XviD
Аудио кодек: AC3
Видео: 720x304 (2.37:1), 25 fps, XviD Final 1.1 (build 41) ~1697 kbps avg, 0.31 bit/pixel
Аудио: 48 kHz, AC3 Dolby Digital, 2/0 (L,R) ch, ~192 kbps [Rus, MVO]
Аудио #2: 48 kHz, AC3 Dolby Digital, 3/2 (L,C,R,l,r) + LFE ch, ~448 kbps [Eng, Original]
Cубтитры: отсутствуют

Media Info

General
Complete name : D:\Mine.Games.2012.P.HDRip.avi
Format : AVI
Format/Info : Audio Video Interleave
File size : 1.45 GiB
Duration : 1h 28mn
Overall bit rate : 2 353 Kbps
Writing application : VirtualDubMod 1.5.10.3 | www.virtualdub-fr.org || (build 2550/release)
Writing library : VirtualDubMod build 2550/release
Video
ID : 0
Format : MPEG-4 Visual
Format profile : Advanced [email protected]
Format settings, BVOP : 2
Format settings, QPel : No
Format settings, GMC : No warppoints
Format settings, Matrix : Default (MPEG)
Codec ID : XVID
Codec ID/Hint : XviD
Duration : 1h 28mn
Bit rate : 1 698 Kbps
Width : 720 pixels
Height : 304 pixels
Display aspect ratio : 2.35:1
Frame rate : 25.000 fps
Color space : YUV
Chroma subsampling : 4:2:0
Bit depth : 8 bits
Scan type : Progressive
Compression mode : Lossy
Bits/(Pixel*Frame) : 0.310
Stream size : 1.05 GiB (72%)
Writing library : XviD 1.1.0 (UTC 2005-11-22)
Audio #1
ID : 1
Format : AC-3
Format/Info : Audio Coding 3
Mode extension : CM (complete main)
Format settings, Endianness : Big
Codec ID : 2000
Duration : 1h 28mn
Bit rate mode : Constant
Bit rate : 192 Kbps
Channel(s) : 2 channels
Channel positions : Front: L R
Sampling rate : 48.0 KHz
Bit depth : 16 bits
Compression mode : Lossy
Stream size : 121 MiB (8%)
Alignment : Split accross interleaves
Interleave, duration : 40 ms (1.00 video frame)
Interleave, preload duration : 500 ms
Audio #2
ID : 2
Format : AC-3
Format/Info : Audio Coding 3
Mode extension : CM (complete main)
Format settings, Endianness : Big
Codec ID : 2000
Duration : 1h 28mn
Bit rate mode : Constant
Bit rate : 448 Kbps
Channel(s) : 6 channels
Channel positions : Front: L C R, Side: L R, LFE
Sampling rate : 48.0 KHz
Bit depth : 16 bits
Compression mode : Lossy
Stream size : 282 MiB (19%)
Alignment : Split accross interleaves
Interleave, duration : 40 ms (1.00 video frame)
Interleave, preload duration : 500 ms

Скриншоты

Яндекс.Метрика
Рейтинг@Mail.ru