Чудовища Берингова моря / Bering Sea Beast (Дон Э. ФонтЛеРой / Don E. FauntLeRoy) [2013 г., Фантастика, WEB-DL] MVO (iTunes)

 

Создавать темы 13-Июн-2014 03:13

-Чудовища Берингова моря / Bering Sea Beast- Производство: США, Active Entertainment, Vesuvius Productions
Год выпуска: 2013 г.
Жанр: Фантастика
Продолжительность: 01:25:51
Мировая премьера: 9 ноября 2013
Перевод: Профессиональный (многоголосый, закадровый) [iTunes]-Режиссер: Дон Э. ФонтЛеРой / Don E. FauntLeRoy
В ролях: Кассандра Сербе, Брэндон Бимер, Жаклин Флеминг, Джонатан Липники, Гарин Спаркс, Джимми Суитуотер, Лоуренс Тернер-Описание: В Беринговом море происходят ужасные вещи — люди становятся жертвами чудовищных морских вампиров… На судно «Черная гряда» прибывает новый член экипажа — матрос по имени Оуэн Пауэрс. Здесь его без особого энтузиазма встречает Донна, дочь сурового морского волка. Ее отец Гленн Хантер не объясняет, почему решил устроить этого парня на работу, но ходят шуточные слухи, что тот — его внебрачный сын. Ближе к полуночи команда «Черной гряды» отправляется исследовать участок, который, по их мнению, богат золотом. Брат донны Джо и боцман Джонас совершают погружение, и тут появляются они — кровожадные чудища.-Качество видео: WEB-DL
Контейнер: AVI
Видео кодек: XviD
Аудио кодек: AC3
Видео: 720x400 (1.80:1), 23.976 fps, XviD build 50 ~1885 kbps avg, 0.27 bit/pixel
Аудио: 48 kHz, AC3 Dolby Digital, 3/2 (L,C,R,l,r) + LFE ch, ~384 kbps
Cубтитры: отсутствуют

Media Info

General
Complete name : D:\Tvari.Berengova.morya.2013.P.WEBDLRip.avi
Format : AVI
Format/Info : Audio Video Interleave
File size : 1.37 GiB
Duration : 1h 25mn
Overall bit rate : 2 279 Kbps
Writing application : VirtualDubMod 1.5.10.2 (build 2540/release)
Writing library : VirtualDubMod build 2540/release
Video
ID : 0
Format : MPEG-4 Visual
Format profile : Advanced [email protected]
Format settings, BVOP : 2
Format settings, QPel : No
Format settings, GMC : No warppoints
Format settings, Matrix : Default (MPEG)
Codec ID : XVID
Codec ID/Hint : XviD
Duration : 1h 25mn
Bit rate : 1 886 Kbps
Width : 720 pixels
Height : 400 pixels
Display aspect ratio : 16:9
Frame rate : 23.976 fps
Color space : YUV
Chroma subsampling : 4:2:0
Bit depth : 8 bits
Scan type : Progressive
Compression mode : Lossy
Bits/(Pixel*Frame) : 0.273
Stream size : 1.13 GiB (83%)
Writing library : XviD 1.2.1 (UTC 2008-12-04)
Audio
ID : 1
Format : AC-3
Format/Info : Audio Coding 3
Mode extension : CM (complete main)
Format settings, Endianness : Big
Codec ID : 2000
Duration : 1h 25mn
Bit rate mode : Constant
Bit rate : 384 Kbps
Channel(s) : 6 channels
Channel positions : Front: L C R, Side: L R, LFE
Sampling rate : 48.0 KHz
Bit depth : 16 bits
Compression mode : Lossy
Stream size : 236 MiB (17%)
Alignment : Split accross interleaves
Interleave, duration : 42 ms (1.00 video frame)
Interleave, preload duration : 500 ms

Скриншоты

Яндекс.Метрика
Рейтинг@Mail.ru