[ Сегодня на трекере фрилич! Идет свободное скачивание без начисления Download ]

Шоссе / Highway (Имтиаз Али / Imtiaz Ali) [2014 г., Драма, мелодрама, HDRip] VO (PashaUp)

 

Создавать темы 13-Июн-2014 03:11

-Шоссе / Highway- Производство: Индия, Window Seat Films
Год выпуска: 2014 г.
Жанр: Драма, мелодрама
Продолжительность: 02:13:04
Мировая премьера: 13 февраля 2014
Перевод: Любительский (одноголосый, закадровый) [PashaUp]-Режиссер: Имтиаз Али / Imtiaz Ali
В ролях: Алиа Бхатт, Рандип Худа, Дургеш Кумар, Прадип Нагар, Сахарш Кумар Шукла, Хемант Махаур, Арджун Малхотра-Описание: Вира накануне своей свадьбы мечтает вырваться на волю хоть на часок — приготовления к торжеству ей порядком наскучили и она хочет глотнуть свежего воздуха вдали от кузин и тетушек, которые только и говорят о нарядах и украшениях. Она оказалась не в то время не в том месте, и вся её жизнь перевернута с ног на голову. А, может быть, и наоборот… Ведь никому неизвестно, где лежит дорога, которая ведёт к его судьбе.-Качество видео: HDRip
Контейнер: AVI
Видео кодек: XviD
Аудио кодек: AC3
Видео: 672x288 (2.33:1), 23.976 fps, XviD build 50 ~1173 kbps avg, 0.25 bit/pixel
Аудио: 48 kHz, AC3 Dolby Digital, 3/2 (L,C,R,l,r) + LFE ch, ~448 kbps
Cубтитры: отсутствуют

Media Info

General
Complete name : D:\Highway.2014.HDRip.avi
Format : AVI
Format/Info : Audio Video Interleave
File size : 1.52 GiB
Duration : 2h 13mn
Overall bit rate : 1 631 Kbps
Writing application : VirtualDubMod 1.5.10.2 (build 2540/release)
Writing library : VirtualDubMod build 2540/release
Video
ID : 0
Format : MPEG-4 Visual
Format profile : Advanced [email protected]
Format settings, BVOP : 2
Format settings, QPel : Yes
Format settings, GMC : No warppoints
Format settings, Matrix : Default (H.263)
Codec ID : XVID
Codec ID/Hint : XviD
Duration : 2h 13mn
Bit rate : 1 174 Kbps
Width : 672 pixels
Height : 288 pixels
Display aspect ratio : 2.35:1
Frame rate : 23.976 fps
Color space : YUV
Chroma subsampling : 4:2:0
Bit depth : 8 bits
Scan type : Progressive
Compression mode : Lossy
Bits/(Pixel*Frame) : 0.253
Stream size : 1.09 GiB (72%)
Writing library : XviD 1.2.1 (UTC 2008-12-04)
Audio
ID : 1
Format : AC-3
Format/Info : Audio Coding 3
Mode extension : CM (complete main)
Format settings, Endianness : Big
Codec ID : 2000
Duration : 2h 13mn
Bit rate mode : Constant
Bit rate : 448 Kbps
Channel(s) : 6 channels
Channel positions : Front: L C R, Side: L R, LFE
Sampling rate : 48.0 KHz
Bit depth : 16 bits
Compression mode : Lossy
Stream size : 426 MiB (27%)
Alignment : Split accross interleaves
Interleave, duration : 42 ms (1.00 video frame)
Interleave, preload duration : 500 ms

Скриншоты

Яндекс.Метрика
Рейтинг@Mail.ru