Бомба для Гитлера / (Александр Седельников) [2014 г., документальный, SATRip]

 

Создавать темы 11-Июн-2014 17:20

-Бомба для Гитлера-- Производство: Россия
Жанр: документальный
Год выпуска: 2014 г.
Продолжительность: 00:38:48
Перевод: Не требуется
Оригинальный аудиопоток: русский
Режиссер: Александр Седельников-Описание: Если бы в арсенале Адольфа Гитлера оказалась атомная бомба, как бы это повлияло на исход Второй мировой войны? Что произошло бы с Англией, если бы на Лондон обрушились не ракеты «Фау-1» и «Фау-2», неспособные сломить волю британцев, а ядерная боеголовка? Почему произошло так, что в руках фюрера не оказалось смертоносного оружия?-Качество видео: SATRip
Контейнер: AVI
Видео кодек: DivX
Аудио кодек: MP3
Видео: 704x528 (1.33:1), 23.976 fps, DivX, 1653 kbps avg, 0.19 bit/pixel
Аудио: 48 kHz, MPEG Layer 3, 2 ch, ~128.00 kbps avg
Cубтитры: отсутствуют

Media Info

Format : AVI
Format/Info : Audio Video Interleave
File size : 496 MiB
Duration : 38mn 47s
Overall bit rate : 1 787 Kbps
Writing application : VirtualDubMod 1.5.10.3 | www.virtualdub-fr.org || (build 2550/release)
Writing library : VirtualDubMod build 2550/release
Video
ID : 0
Format : MPEG-4 Visual
Format profile : Advanced [email protected]
Format settings, BVOP : 2
Format settings, QPel : No
Format settings, GMC : No warppoints
Format settings, Matrix : Default (MPEG)
Codec ID : DX50
Codec ID/Hint : DivX 5
Duration : 38mn 47s
Bit rate : 1 650 Kbps
Width : 704 pixels
Height : 528 pixels
Display aspect ratio : 4:3
Frame rate : 23.976 fps
Color space : YUV
Chroma subsampling : 4:2:0
Bit depth : 8 bits
Scan type : Progressive
Compression mode : Lossy
Bits/(Pixel*Frame) : 0.185
Stream size : 458 MiB (92%)
Writing library : XviD 73
Audio
ID : 1
Format : MPEG Audio
Format version : Version 1
Format profile : Layer 3
Codec ID : 55
Codec ID/Hint : MP3
Duration : 38mn 47s
Bit rate mode : Constant
Bit rate : 128 Kbps
Channel count : 2 channels
Sampling rate : 48.0 KHz
Compression mode : Lossy
Stream size : 35.5 MiB (7%)
Alignment : Aligned on interleaves
Interleave, duration : 42 ms (1.00 video frame)
Interleave, preload duration : 504 ms
Writing library : LAME3.99r
Encoding settings : -m s -V 4 -q 2 -lowpass 17 -b 128

Скриншоты

Создавать темы 11-Июн-2014 19:05 (спустя 1 час 44 минуты)

ksd66,
Спасибки Серёж!!! Люблю смотреть документальные на тему ВТОРОЙ МИРОВОЙ.
Яндекс.Метрика
Рейтинг@Mail.ru