Вода в бутылке / Tapped (Стефани Сёчтиг / Stephanie Soechtig, Джейсон Линдси / Jason Lindsey) [2009 г., документальный, SATRip] DVO

 

Создавать темы 11-Июн-2014 16:58

-Вода в бутылке / Tapped- Год выпуска: 2009 г.
Производство: США , Atlas Films
Жанр: документальный
Продолжительность: 01:14:53
Мировая премьера: 31 июля 2009
Перевод: Профессиональный (двухголосый, закадровый)
Автор(ы) перевода: Студия "Марафон"
Режиссёр: Стефани Сёчтиг / Stephanie Soechtig, Джейсон Линдси / Jason Lindsey-В ролях: Активисты по защите воды, общественные деятели-Описание: К 2030 году 2/3 планеты будет страдать от нехватки питьевой воды. С этой проблемой столкнутся все, независимо от места жительства. Когда мы начинаем относиться к воде как к товару, когда цена воды зависит от спроса и предложения, мы даём корпорациям право владеть запасами питьевой воды. Доступ к питьевой воде – это одно из основных прав человека.
В фильме – подробное исследование индустрии, которая стремится присвоить и перепродать этот ресурс.
-Качество видео: SATRip
Контейнер: AVI
Видео кодек: XviD
Аудио кодек: MP3
Видео: 704x400, 1446 kbps, 25 fps, 0.205 bit/pixel
Аудио: 192 kbps, 2 ch, 48.0 kHz
Cубтитры: отсутствуют

Media Info

Общее
Полное имя : Вода в бутылке_ Tapped.2009.[SATRip].avi
Формат : AVI
Формат/Информация : Audio Video Interleave
Размер файла : 881 Мбайт
Продолжительность : 1 ч. 14 м.
Общий поток : 1648 Кбит/сек
Программа кодирования : VirtualDubMod 1.5.10.3 | (build 2550/release)
Библиотека кодирования : VirtualDubMod build 2550/release
Видео
Идентификатор : 0
Формат : MPEG-4 Visual
Профиль формата : Advanced [email protected]
Параметр BVOP формата : 2
Параметр QPel формата : Нет
Параметр GMC формата : Без точки перехода
Параметр матрицы формата : Выборочная
Идентификатор кодека : XVID
Идентификатор кодека/Подсказка : XviD
Продолжительность : 1 ч. 14 м.
Битрейт : 1446 Кбит/сек
Ширина : 704 пикселя
Высота : 400 пикселей
Соотношение сторон : 16:9
Частота кадров : 25,000 кадров/сек
Цветовое пространство : YUV
Субдискретизация насыщенности : 4:2:0
Битовая глубина : 8 бит
Тип развёртки : Прогрессивная
Метод сжатия : С потерями
Бит/(Пиксели*Кадры) : 0.205
Размер потока : 773 Мбайт (88%)
Библиотека кодирования : XviD 73
Аудио
Идентификатор : 1
Формат : MPEG Audio
Версия формата : Version 1
Профиль формата : Layer 3
Идентификатор кодека : 55
Идентификатор кодека/Подсказка : MP3
Продолжительность : 1 ч. 14 м.
Вид битрейта : Постоянный
Битрейт : 192 Кбит/сек
Каналы : 2 канала
Частота : 48,0 КГц
Метод сжатия : С потерями
Размер потока : 103 Мбайт (12%)
Выравнивание : Соединение по промежуткам
Продолжительность промежутка : 40 мс. (1,00 видеокадр)
Время предзагрузки промежутка : 504 мс.
Библиотека кодирования : LAME3.99.5
Скриншоты:

Ещё скриншоты

-
Яндекс.Метрика
Рейтинг@Mail.ru