Два отца и два сына / Сезон: 2 / Серии: 1-20 из 20 (Радда Новикова) [2014 г., Комедия, SATRip]

 

Создавать темы 10-Июн-2014 20:32

Два отца и два сына-- Производство: Россия, Yellow, Black & White
Жанр: Комедия
Год выпуска: 2014 г.
Продолжительность: ~ 00:26:00 / серия
Российская премьера: 21 октября 2013
Режиссер: Радда Новикова-В ролях: Дмитрий Нагиев, Алика Смехова, Максим Студеновский, Виктория Лукина, Илья Костюков, Татьяна Анисимова, Ангелина Притуманова-Описание: Павел Гуров — успешный актер, любимец женщин, сигар и виски. И то, и другое, и особенно первое необходимо Гурову как воздух. Семья и долгие отношения с девушками не для него. Когда-то давно, Павел оставил в Брянске жену с ребенком и уехал в Москву делать карьеру актера… Прошло 20 лет. Совсем уже взрослый сын Гурова Виктор вместе со своим сыном Владом появляется на отцовском пороге. Виктор приехал чтобы вернуть сбежавшую от него жену Аню. Квартиру отца он воспринимает как временный перевалочный пункт. Однако ни через день, ни через два, ни даже через неделю Аня не возвращается, а Гуров-старший с ужасом для себя понимает, что родственнички приехали надолго…-
Качество видео: SATRip
Контейнер: AVI
Видео кодек: DivX
Аудио кодек: MP3
Видео: XviD, ~ 1800 Кбит/с, 720x400, 25 fps, 0.250 bpp
Аудио: 48 kHz, MP3, 2 ch, 192 Кбит/с
Cубтитры: отсутствуют

Media Info

General
Complete name : W:\Dva.otca.i.dva.syna.2.SATRip\Dva.otca.i.dva.syna.2-02.SATRip.avi
Format : AVI
Format/Info : Audio Video Interleave
File size : 337 MiB
Duration : 23mn 30s
Overall bit rate : 2 002 Kbps
Writing library : VirtualDub build 32817/release
Video
ID : 0
Format : MPEG-4 Visual
Format profile : Advanced [email protected]
Format settings, BVOP : Yes
Format settings, QPel : No
Format settings, GMC : No warppoints
Format settings, Matrix : Default (MPEG)
Codec ID : XVID
Codec ID/Hint : XviD
Duration : 23mn 30s
Bit rate : 1 801 Kbps
Width : 720 pixels
Height : 400 pixels
Display aspect ratio : 16:9
Frame rate : 25.000 fps
Color space : YUV
Chroma subsampling : 4:2:0
Bit depth : 8 bits
Scan type : Progressive
Bits/(Pixel*Frame) : 0.250
Stream size : 303 MiB (90%)
Writing library : XviD 1.2.1 (UTC 2008-12-04)
Audio
ID : 1
Format : MPEG Audio
Format version : Version 1
Format profile : Layer 3
Mode : Joint stereo
Codec ID : 55
Codec ID/Hint : MP3
Duration : 23mn 30s
Bit rate mode : Constant
Bit rate : 192 Kbps
Channel(s) : 2 channels
Sampling rate : 48.0 KHz
Stream size : 32.3 MiB (10%)
Alignment : Split accross interleaves
Interleave, duration : 40 ms (1.00 video frame)
Interleave, preload duration : 500 ms

Скриншоты

Яндекс.Метрика
Рейтинг@Mail.ru