[ Сегодня на трекере фрилич! Идет свободное скачивание без начисления Download ]

(Prog Related) Asia - Gravitas - 2014 [FLAC, tracks+.cue, lossless]

 

Создавать темы 10-Июн-2014 06:59

-Asia - Gravitas- Год издания: 2014
Страна: UK
Жанр: Prog Related
Продолжительность: 00:59:01
Формат: FLAC
Битрейт аудио: lossless
Тип рипа: tracks+.cue
-Трэклист:
01. Valkyrie
02. Gravitas (i. Lento ii. Gravitas)
03. The Closer I Get to You
04. Nyctophobia
05. Russian Dolls
06. Heaven Help Me Now (i. Wings of Angels ii. Prelude iii.Heaven Help Me Now)
07. I Would Die For You
08. Joe DiMaggio's Glove
09. Till We Meet Again
10. The Closer I Get to You (Acoustic)
11. Joe DiMaggio's Glove (Acoustic)
-

Содержание индексной карты (.CUE)

REM GENRE "Progressive Rock"
REM DATE 2014
REM DISCID 900DD40B
REM COMMENT "ExactAudioCopy v1.0b3"
PERFORMER "Asia"
TITLE "Gravitas (Deluxe Edition CD+DVD)"
FILE "Asia - Gravitas.flac" WAVE
TRACK 01 AUDIO
TITLE "Valkyrie"
PERFORMER "Asia"
ISRC GBL2D1300034
INDEX 01 00:00:00
TRACK 02 AUDIO
TITLE "Gravitas: i. Lento, ii. Gravitas"
PERFORMER "Asia"
ISRC GBL2D1300035
INDEX 01 05:25:60
TRACK 03 AUDIO
TITLE "The Closer I Get to You"
PERFORMER "Asia"
ISRC GBL2D1300036
INDEX 01 13:25:48
TRACK 04 AUDIO
TITLE "Nyctophobia"
PERFORMER "Asia"
ISRC GBL2D1300037
INDEX 01 20:03:55
TRACK 05 AUDIO
TITLE "Russian Dolls"
PERFORMER "Asia"
ISRC GBL2D1300038
INDEX 01 25:15:37
TRACK 06 AUDIO
TITLE "Heaven Help Me Now: i. Wings of Angels, ii. Prelude, iii.Heaven Help Me Now"
PERFORMER "Asia"
ISRC GBL2D1300039
INDEX 01 30:21:09
TRACK 07 AUDIO
TITLE " I Would Die For You"
PERFORMER "Asia"
ISRC GBL2D1300040
INDEX 01 35:59:62
TRACK 08 AUDIO
TITLE "Joe DiMaggio's Glove"
PERFORMER "Asia"
ISRC GBL2D1300041
INDEX 01 39:11:12
TRACK 09 AUDIO
TITLE "Till We Meet Again"
PERFORMER "Asia"
ISRC GBL2D1300042
INDEX 01 43:42:09
TRACK 10 AUDIO
TITLE " The Closer I Get to You (Acoustic)"
PERFORMER "Asia"
ISRC GBL2D1300043
INDEX 01 47:45:73
TRACK 11 AUDIO
TITLE "Joe DiMaggio's Glove (Acoustic)"
PERFORMER "Asia"
ISRC GBL2D1300045
INDEX 01 54:26:58

Доп. информация

X Lossless Decoder version 20131102 (145.0)
XLD extraction logfile from 2014-03-22 09:16:05 +0000
Asia / Gravitas
Used : PIONEER BD-RW BDR-203 (revision 1.13)
Media type : Pressed CD
Ripper mode : XLD Secure Ripper
Disable audio cache : OK for the drive with a cache less than 1375KiB
Make use of C2 pointers : NO
Read offset correction : 667
Max retry count : 100
Gap status : Analyzed, Appended (except HTOA)
TOC of the extracted CD
Track | Start | Length | Start sector | End sector
---------------------------------------------------------
1 | 00:00:00 | 05:25:60 | 0 | 24434
2 | 05:25:60 | 07:59:63 | 24435 | 60422
3 | 13:25:48 | 06:38:07 | 60423 | 90279
4 | 20:03:55 | 05:11:57 | 90280 | 113661
5 | 25:15:37 | 05:05:47 | 113662 | 136583
6 | 30:21:09 | 05:38:53 | 136584 | 161986
7 | 35:59:62 | 03:11:25 | 161987 | 176336
8 | 39:11:12 | 04:30:72 | 176337 | 196658
9 | 43:42:09 | 04:03:64 | 196659 | 214947
10 | 47:45:73 | 06:40:60 | 214948 | 245007
11 | 54:26:58 | 04:34:02 | 245008 | 265559
AccurateRip Summary
Disc not found in AccurateRip DB.
All Tracks
Album gain : -9.65 dB
Peak : 0.977203
Statistics
Read error : 0
Jitter error (maybe fixed) : 0
Retry sector count : 0
Damaged sector count : 0
Track 01
Filename : /Users/Swampsnake/Working Folder/XLD/Asia - Gravitas (2014) [FLAC]/01 Valkyrie.flac
Pre-gap length : 00:02:00
Track gain : -10.28 dB
Peak : 0.977142
CRC32 hash (test run) : 7EE72AE6
CRC32 hash : 7EE72AE6
CRC32 hash (skip zero) : 29CA1A54
AccurateRip v1 signature : 5A954B05
AccurateRip v2 signature : 6D01EA4F
->Track not present in AccurateRip database.
Statistics
Read error : 0
Jitter error (maybe fixed) : 0
Retry sector count : 0
Damaged sector count : 0
Track 02
Filename : /Users/Swampsnake/Working Folder/XLD/Asia - Gravitas (2014) [FLAC]/02 Gravitas (i. Lento ii. Gravitas).flac
Track gain : -10.18 dB
Peak : 0.977142
CRC32 hash (test run) : DB30DE57
CRC32 hash : DB30DE57
CRC32 hash (skip zero) : 2F3E5A9C
AccurateRip v1 signature : C0B43726
AccurateRip v2 signature : C5D9A7ED
->Track not present in AccurateRip database.
Statistics
Read error : 0
Jitter error (maybe fixed) : 0
Retry sector count : 0
Damaged sector count : 0
Track 03
Filename : /Users/Swampsnake/Working Folder/XLD/Asia - Gravitas (2014) [FLAC]/03 The Closer I Get to You.flac
Track gain : -8.45 dB
Peak : 0.977142
CRC32 hash (test run) : 7D0EF1B7
CRC32 hash : 7D0EF1B7
CRC32 hash (skip zero) : CE400BF0
AccurateRip v1 signature : 609A9B1D
AccurateRip v2 signature : CA2B76B4
->Track not present in AccurateRip database.
Statistics
Read error : 0
Jitter error (maybe fixed) : 0
Retry sector count : 0
Damaged sector count : 0
Track 04
Filename : /Users/Swampsnake/Working Folder/XLD/Asia - Gravitas (2014) [FLAC]/04 Nyctophobia.flac
Track gain : -10.08 dB
Peak : 0.977142
CRC32 hash (test run) : D578950A
CRC32 hash : D578950A
CRC32 hash (skip zero) : 3BCC7D37
AccurateRip v1 signature : 659BE1ED
AccurateRip v2 signature : B0BBC38A
->Track not present in AccurateRip database.
Statistics
Read error : 0
Jitter error (maybe fixed) : 0
Retry sector count : 0
Damaged sector count : 0
Track 05
Filename : /Users/Swampsnake/Working Folder/XLD/Asia - Gravitas (2014) [FLAC]/05 Russian Dolls.flac
Track gain : -8.17 dB
Peak : 0.977142
CRC32 hash (test run) : 51D3A777
CRC32 hash : 51D3A777
CRC32 hash (skip zero) : 836E5A50
AccurateRip v1 signature : 6F931666
AccurateRip v2 signature : 90E0E603
->Track not present in AccurateRip database.
Statistics
Read error : 0
Jitter error (maybe fixed) : 0
Retry sector count : 0
Damaged sector count : 0
Track 06
Filename : /Users/Swampsnake/Working Folder/XLD/Asia - Gravitas (2014) [FLAC]/06 Heaven Help Me Now (i. Wings of Angels ii. Prelude iii.Heaven Help Me Now).flac
Track gain : -9.08 dB
Peak : 0.977173
CRC32 hash (test run) : 2159D039
CRC32 hash : 2159D039
CRC32 hash (skip zero) : 56683218
AccurateRip v1 signature : 1435945D
AccurateRip v2 signature : C3B12FA0
->Track not present in AccurateRip database.
Statistics
Read error : 0
Jitter error (maybe fixed) : 0
Retry sector count : 0
Damaged sector count : 0
Track 07
Filename : /Users/Swampsnake/Working Folder/XLD/Asia - Gravitas (2014) [FLAC]/07 I Would Die For You.flac
Track gain : -9.99 dB
Peak : 0.977142
CRC32 hash (test run) : 6F97843D
CRC32 hash : 6F97843D
CRC32 hash (skip zero) : 2CA31354
AccurateRip v1 signature : 3FDD147A
AccurateRip v2 signature : ECF3F015
->Track not present in AccurateRip database.
Statistics
Read error : 0
Jitter error (maybe fixed) : 0
Retry sector count : 0
Damaged sector count : 0
Track 08
Filename : /Users/Swampsnake/Working Folder/XLD/Asia - Gravitas (2014) [FLAC]/08 Joe DiMaggio's Glove.flac
Track gain : -9.76 dB
Peak : 0.977142
CRC32 hash (test run) : A4E0E922
CRC32 hash : A4E0E922
CRC32 hash (skip zero) : 2B62DA86
AccurateRip v1 signature : 0A4B8C1F
AccurateRip v2 signature : ACC2A4E0
->Track not present in AccurateRip database.
Statistics
Read error : 0
Jitter error (maybe fixed) : 0
Retry sector count : 0
Damaged sector count : 0
Track 09
Filename : /Users/Swampsnake/Working Folder/XLD/Asia - Gravitas (2014) [FLAC]/09 Till We Meet Again.flac
Track gain : -7.89 dB
Peak : 0.977142
CRC32 hash (test run) : 6706EC27
CRC32 hash : 6706EC27
CRC32 hash (skip zero) : 4B31A69E
AccurateRip v1 signature : 0B6DE6DC
AccurateRip v2 signature : A1211637
->Track not present in AccurateRip database.
Statistics
Read error : 0
Jitter error (maybe fixed) : 0
Retry sector count : 0
Damaged sector count : 0
Track 10
Filename : /Users/Swampsnake/Working Folder/XLD/Asia - Gravitas (2014) [FLAC]/10 The Closer I Get to You (Acoustic).flac
Track gain : -7.74 dB
Peak : 0.977203
CRC32 hash (test run) : A397BB42
CRC32 hash : A397BB42
CRC32 hash (skip zero) : FEB5172E
AccurateRip v1 signature : 09A4882A
AccurateRip v2 signature : 02A6584B
->Track not present in AccurateRip database.
Statistics
Read error : 0
Jitter error (maybe fixed) : 0
Retry sector count : 0
Damaged sector count : 0
Track 11
Filename : /Users/Swampsnake/Working Folder/XLD/Asia - Gravitas (2014) [FLAC]/11 Joe DiMaggio's Glove (Acoustic).flac
Track gain : -9.64 dB
Peak : 0.977173
CRC32 hash (test run) : 190A81A5
CRC32 hash : 190A81A5
CRC32 hash (skip zero) : 23832C23
AccurateRip v1 signature : D965E19C
AccurateRip v2 signature : CC076126
->Track not present in AccurateRip database.
Statistics
Read error : 0
Jitter error (maybe fixed) : 0
Retry sector count : 0
Damaged sector count : 0
No errors occurred
End of status report
-----BEGIN XLD SIGNATURE-----
OHVcTeHa8IE4DACp8wrzftpTGAkzU91qA6wepaN0YsTgDRxg1XcthmRskJVIVOYsAgN5l5AdycyFeAKOx_wR7HjhJYD15JyaxbqeFTG
-----END XLD SIGNATURE-----
Яндекс.Метрика
Рейтинг@Mail.ru