[ Сегодня на трекере фрилич! Идет свободное скачивание без начисления Download ]

Клип / Klip (Майя Милош / Maja Milos) [2012 г., Драма, BDRip, 720p] MVO (online movies) + VO (den904) + Sub (Rus, Eng) + Original (Ser)

 

Создавать темы 10-Июн-2014 06:50

-Клип / Klip- Производство: Сербия, Film House Bas Celik
Год выпуска: 2012 г.
Жанр: Драма
Продолжительность: 01:38:28
Мировая премьера: 27 января 2012
Перевод: Профессиональный (многоголосый, закадровый) [online movies]
Перевод 2: Любительский (одноголосый, закадровый) [den904]
Оригинальный аудиопоток: Сербский-Режиссер: Майя Милош / Maja Milos
В ролях: Исидора Симионович, Вукасин Яснич, Зоран Максимович, Никола Драгутинович, Владимир Гвоиц, Соня Яничиц, Йово Максик, Катарина Пешич-Описание: Ясна — красивая девочка-подросток. Не желая примириться с жизнью в провинциальном сербском захолустье с замученной работой мамашей и постоянно больным отцом, она находится в конфликте со всеми, ведет себя дико, экспериментирует с сексом, наркотиками, и просто убивает время. Но постепенно ее отчаянный протест помогает ей примириться с болезненной реальностью.- -Качество видео: BDRip
Контейнер: MKV
Стандарт разрешения: 720p
Видео кодек: H.264
Аудио кодек: AC3
Видео: 1280x608 (2.105), 4 870 Kbps, 25.000 fps, 0.250 bit/pix
Аудио: 192 Kbps, 2 ch, 48.0 KHz [Rus, MVO]
Аудио #2: 192 Kbps, 2 ch, 48.0 KHz [Rus, VO]
Аудио #3: 224 Kbps, 2 ch, 48.0 KHz [Ser, Original]
Cубтитры: Русские, английские

Media Info

General
Unique ID : 171513854912467643533261984272672989003 (0x81085DED81D219A69C23A5FB377D9F4B)
Complete name : D:\Clip.2012.BDRip.720p.mkv
Format : Matroska
Format version : Version 4 / Version 2
File size : 3.75 GiB
Duration : 1h 38mn
Overall bit rate : 5 452 Kbps
Encoded date : UTC 2013-10-14 21:21:10
Writing application : mkvmerge v6.4.1 ('Omega Point') built on Sep 16 2013 22:05:10
Writing library : libebml v1.3.0 + libmatroska v1.4.1
Video
ID : 1
Format : AVC
Format/Info : Advanced Video Codec
Format profile : [email protected]
Format settings, CABAC : Yes
Format settings, ReFrames : 9 frames
Codec ID : V_MPEG4/ISO/AVC
Duration : 1h 38mn
Bit rate : 4 870 Kbps
Width : 1 280 pixels
Height : 608 pixels
Display aspect ratio : 2.105
Frame rate mode : Constant
Frame rate : 25.000 fps
Color space : YUV
Chroma subsampling : 4:2:0
Bit depth : 8 bits
Scan type : Progressive
Bits/(Pixel*Frame) : 0.250
Stream size : 3.26 GiB (87%)
Writing library : x264 core 138 r2358 9e941d1
Encoding settings : cabac=1 / ref=9 / deblock=1:-3:-3 / analyse=0x3:0x113 / me=umh / subme=11 / psy=1 / psy_rd=1.10:0.10 / mixed_ref=1 / me_range=32 / chroma_me=1 / trellis=2 / 8x8dct=1 / cqm=0 / deadzone=21,11 / fast_pskip=0 / chroma_qp_offset=-2 / threads=12 / lookahead_threads=1 / sliced_threads=0 / nr=0 / decimate=1 / interlaced=0 / bluray_compat=0 / constrained_intra=0 / bframes=6 / b_pyramid=2 / b_adapt=2 / b_bias=0 / direct=3 / weightb=1 / open_gop=0 / weightp=2 / keyint=250 / keyint_min=25 / scenecut=40 / intra_refresh=0 / rc=2pass / mbtree=0 / bitrate=4870 / ratetol=1.0 / qcomp=0.70 / qpmin=0 / qpmax=69 / qpstep=4 / cplxblur=20.0 / qblur=0.5 / ip_ratio=1.40 / pb_ratio=1.30 / aq=2:0.90
Language : Serbian
Default : Yes
Forced : No
Audio #1
ID : 2
Format : AC-3
Format/Info : Audio Coding 3
Mode extension : CM (complete main)
Format settings, Endianness : Big
Codec ID : A_AC3
Duration : 1h 38mn
Bit rate mode : Constant
Bit rate : 192 Kbps
Channel(s) : 2 channels
Channel positions : Front: L R
Sampling rate : 48.0 KHz
Bit depth : 16 bits
Compression mode : Lossy
Stream size : 135 MiB (4%)
Title : online movies
Language : Russian
Default : Yes
Forced : Yes
Audio #2
ID : 3
Format : AC-3
Format/Info : Audio Coding 3
Mode extension : CM (complete main)
Format settings, Endianness : Big
Codec ID : A_AC3
Duration : 1h 38mn
Bit rate mode : Constant
Bit rate : 192 Kbps
Channel(s) : 2 channels
Channel positions : Front: L R
Sampling rate : 48.0 KHz
Bit depth : 16 bits
Compression mode : Lossy
Stream size : 135 MiB (4%)
Title : den904
Language : Russian
Default : No
Forced : No
Audio #3
ID : 4
Format : AC-3
Format/Info : Audio Coding 3
Mode extension : CM (complete main)
Format settings, Endianness : Big
Codec ID : A_AC3
Duration : 1h 38mn
Bit rate mode : Constant
Bit rate : 224 Kbps
Channel(s) : 2 channels
Channel positions : Front: L R
Sampling rate : 48.0 KHz
Bit depth : 16 bits
Compression mode : Lossy
Stream size : 158 MiB (4%)
Title : Serbian AC3 2.0 224Kbps
Language : Serbian
Default : No
Forced : No
Text #1
ID : 5
Format : UTF-8
Codec ID : S_TEXT/UTF8
Codec ID/Info : UTF-8 Plain Text
Language : Russian
Default : No
Forced : No
Text #2
ID : 6
Format : UTF-8
Codec ID : S_TEXT/UTF8
Codec ID/Info : UTF-8 Plain Text
Language : English
Default : No
Forced : No

Скриншоты

Яндекс.Метрика
Рейтинг@Mail.ru