Воздушный маршал / Non-Stop (Хауме Кольет-Серра / Jaume Collet-Serra) [2014 г., Боевик, триллер, детектив, DVD5] Dub (Лицензия) + Sub (Rus, Eng) + Original (Eng)

 

Создавать темы 10-Июн-2014 06:27

-Воздушный маршал / Non-Stop-- Производство: Великобритания, Франция, США / StudioCanal, Anton Capital Entertainment (ACE), Silver Pictures
Год выпуска: 2014 г.
Жанр: Боевик, триллер, детектив
Продолжительность: 01:42:15
Мировая премьера: 27 января 2014
Российская премьера: 12 марта 2014, «Парадиз»
Дата выхода DVD: 1 июля 2014, «Парадиз / Активижен»
Дата выхода Blu-Ray: 1 июля 2014, «Парадиз / Активижен»
Перевод: Профессиональный (полное дублирование) [Лицензия]
Оригинальный аудиопоток: английский
Режиссер: Хауме Кольет-Серра / Jaume Collet-Serra-В ролях: Лиам Нисон, Джулианна Мур, Скут МакНэйри, Мишель Докери, Нэйт Паркер, Кори Столл, Лупита Нионго, Омар Метуолли, Джейсон Батлер Харнер, Лайнас Роуч-Описание: Межконтинентальный авиарейс. Билл Маркс, воздушный маршал, который обеспечивает безопасность пассажиров, получает сообщения с угрозами от маньяка-террориста. Преступник просчитал все ходы и подставил под обвинение самого спецагента. Теперь Маркс — цель спецслужб США. Ему остается одно: вычислить и обезвредить преступника, спасти пассажиров и свою любовь, которую он обретает на краю гибели. До взрыва остаются считанные минуты…-
Качество видео: DVD5
Контейнер: DVD Video
Видео кодек: MPEG2
Аудио кодек: AC3
Видео: MPEG-2, 720x576 (PAL 16:9), ~5202 Кбит/сек, 25.000 кадр/сек, 0.502 bit / pix
Аудио: Rus: 48kHz, AC3 5.1, 384 Кбит/сек
Аудио 2: Eng: 48kHz, AC3 5.1, 384 Кбит/сек
Cубтитры: русские, английские
Формат субтитров: softsub (SRT)

Media Info

General
Complete name : W:\Non-Stop.2014.DVD5\VIDEO_TS\VTS_01_1.VOB
Format : MPEG-PS
File size : 1 000 MiB
Duration : 22mn 57s
Overall bit rate : 6 092 Kbps
Video
ID : 224 (0xE0)
Format : MPEG Video
Format version : Version 2
Format profile : [email protected]
Format settings, BVOP : Yes
Format settings, Matrix : Default
Duration : 22mn 57s
Bit rate mode : Variable
Bit rate : 5 202 Kbps
Nominal bit rate : 9 800 Kbps
Width : 720 pixels
Height : 576 pixels
Display aspect ratio : 16:9
Frame rate : 25.000 fps
Standard : PAL
Color space : YUV
Chroma subsampling : 4:2:0
Bit depth : 8 bits
Scan type : Progressive
Scan order : Top Field First
Bits/(Pixel*Frame) : 0.502
Stream size : 854 MiB (85%)
Audio #1
ID : 128 (0x80)
Format : AC-3
Format/Info : Audio Coding 3
Mode extension : CM (complete main)
Duration : 22mn 57s
Bit rate mode : Constant
Bit rate : 384 Kbps
Channel(s) : 6 channels
Channel positions : Front: L C R, Side: L R, LFE
Sampling rate : 48.0 KHz
Bit depth : 16 bits
Stream size : 63.0 MiB (6%)
Audio #2
ID : 129 (0x81)
Format : AC-3
Format/Info : Audio Coding 3
Mode extension : CM (complete main)
Duration : 22mn 57s
Bit rate mode : Constant
Bit rate : 384 Kbps
Channel(s) : 6 channels
Channel positions : Front: L C R, Side: L R, LFE
Sampling rate : 48.0 KHz
Bit depth : 16 bits
Stream size : 63.0 MiB (6%)
Text
ID : 32 (0x20)
Format : RLE
Format/Info : Run-length encoding
Menu

Скриншот c названием фильма

Скриншоты

Яндекс.Метрика
Рейтинг@Mail.ru