Ребенок Розмари / Rosemary's Baby / Сезон: 1 / полный / Серии: 4 из 4 (Агнешка Холланд / Agnieszka Holland) [2014 г., ужасы, драма, детектив, ..., WEB-DLRip] MVO (LostFilm)

 

Создавать темы 10-Июн-2014 06:25

-Ребенок Розмари / Rosemary's Baby
«Fear is born»
-- Производство: США
Жанр: ужасы, драма, детектив, ...
Год выпуска: 2014 г.-Мировая премьера: 11 мая 2014-Озвучка: Студия |LostFilm|
Перевод: Многоголосый закадровый, профессиональный-Режиссер: Агнешка Холланд / Agnieszka Holland-В ролях: Патрик Джей Адамс, Кароль Буке, Кристина Коул, Стани Коппет, Джейсон Айзекс, Юстина Келли, ливье Рабурден, Вероника Розати, Зои Салдана, Сабина Кроссен ...-Описание:
История о молодой девушке Розмари Вудхаус, которая подозревает, что ее соседи — участники Сатанинского культа, а их цель — ее будущий ребенок.-Сезон: 1
Серии: 4 из 4 серий
Продолжительность: ~ 00:41:00 мин серия-Качество видео: WEB-DLRip
Контейнер: AVI
Видео кодек: XviD
Аудио кодек: MP3
Видео: MPEG-4 Visual at 1202 Кбит/сек: 720 x 400 (1.800) at 23.976 fps: 0.17 Бит/Пиксели
Аудио Rus: MPEG Audio at 192 Кбит/сек: 2 канала, 48,0 КГц |LostFilm|
Cубтитры: отсутствуют
- -

Список серий:

  • Ночь 1. Часть 1 (Night One. Part 1)
  • Ночь 1. Часть 2 (Night One. Part 2)
  • Ночь 2. Часть 1 (Night Two. Part 1)
  • Ночь 2. Часть 2 (Night Two. Part 2)

Дополнительная информация относительно серий:

Данный мини сериал состоит из двух серий, каждая из которых состоит из двух частей.

Media Info

Общее
Полное имя                               : E:\_Сериалы\Rosemarys.Baby.S01E01.rus.LostFilm.TV.avi
Формат                                   : AVI
Формат/Информация                        : Audio Video Interleave
Размер файла                             : 417 Мбайт
Продолжительность                        : 41 м.
Режим общего битрейта                    : Переменный
Общий поток                              : 1402 Кбит/сек
Программа кодирования                    : Nandub v1.0rc2
Библиотека кодирования                   : Nandub build 1853/release
Видео
Идентификатор                            : 0
Формат                                   : MPEG-4 Visual
Профиль формата                          : [email protected]
Параметр BVOP формата                    : Нет
Параметр QPel формата                    : Нет
Параметр GMC формата                     : Без точки перехода
Параметр матрицы формата                 : Default (H.263)
Идентификатор кодека                     : XVID
Идентификатор кодека/Подсказка           : XviD
Продолжительность                        : 41 м.
Битрейт                                  : 1202 Кбит/сек
Ширина                                   : 720 пикселей
Высота                                   : 400 пикселей
Соотношение сторон                       : 16:9
Частота кадров                           : 23,976 кадра/сек
Цветовое пространство                    : YUV
Субдискретизация насыщенности            : 4:2:0
Битовая глубина                          : 8 бит
Тип развёртки                            : Прогрессивная
Метод сжатия                             : С потерями
Бит/(Пиксели*Кадры)                      : 0.174
Размер потока                            : 358 Мбайт (86%)
Библиотека кодирования                   : XviD 1.2.1 (UTC 2008-12-04)
Аудио
Идентификатор                            : 1
Формат                                   : MPEG Audio
Версия формата                           : Version 1
Профиль формата                          : Layer 3
Режим                                    : Joint stereo
Расширение режима                        : MS Stereo
Идентификатор кодека                     : 55
Идентификатор кодека/Подсказка           : MP3
Продолжительность                        : 41 м.
Вид битрейта                             : Переменный
Битрейт                                  : 192 Кбит/сек
Каналы                                   : 2 канала
Частота                                  : 48,0 КГц
Метод сжатия                             : С потерями
Размер потока                            : 55,7 Мбайт (13%)
Выравнивание                             : Соединение по промежуткам
Продолжительность промежутка             : 24  мс. (0,58 видеокадр)
Время предзагрузки промежутка            : 496  мс.
Библиотека кодирования                   : LAME3.97b
Настройки программы                      : -m j -V 4 -q 3 -lowpass 18.6 --abr 192

Скриншот c названием фильма

Скриншоты

ЕщЕ:

-Добавлена четвертая, заключительная, серия первого сезона
Яндекс.Метрика
Рейтинг@Mail.ru