[ Сегодня на трекере фрилич! Идет свободное скачивание без начисления Download ]

Кремниевая долина /Silicon Valley (Сезон 1 / полный / Серии: 8 из 8) (Майк Джадж / Mike Judge) [2014г., комедия, HDTVRip 720р] МVO (BaibaKo) + Original (Eng)

 

Создавать темы 06-Июн-2014 04:37

Кремниевая долина /Silicon Valley- Русское название: Кремниевая долина
Оригинальное название: Silicon Valley
Страна: США
Год выпуска: 2014
Жанр: комедия-Релиз:
Перевод: Профессиональный (многоголосый, закадровый)
Оригинальный аудиопоток: английский-Автор перевода:: Наталья Черненко
Озвучка: Юлия Котурбаш, Артемий Мирон, Александр Фурман и Акмал Гурезов
Монтаж: Павел Дежин
Обложка: tvblog-Премьера (мир): 6 апреля 2014, ...
Премьера (РФ): 7 апреля 2014-Режиссер: Майк Джадж / Mike Judge
В главных ролях: Аманда Крю, Эли Мави, Джэйк Бродер, Энди Бакли, Порша Коулмэн, Джимми Оуянг, Остин Абрамс, Victor Achkeev, Джилл Е. Александр, Бобак Бахтиари, ...-Описание фильма:
История о группе гиков, готовящих к запуску собственные стартапы в высокотехнологичном центре Сан-Франциско.
Главные герои сериала бесплатно проживают в доме местного миллионера, но взамен им придётся отдать по 10% прибыли от будущих проектов.-Сезон: 1
Серии: 8 из 8 серий
Продолжительность: ~ 00:29:00 мин серия-Качество видео: HDTVRip 720р
Формат: MKV
Видеокодек: AVC [email protected]
Аудиокодек: AC-3
Видео: AVC at 3380 Кбит/сек: 1280 x 720 (1.778) at 23.976 fps, 0.15 bit/pixel
Аудио Rus: AC-3 at 384 Кбит/сек: 6 каналов, 48,0 КГц |BaibaKo|
Аудио Eng: AC-3 at 384 Кбит/сек: 6 каналов, 48,0 КГц |Original|
Cубтитры: отсутствуют
- -

Список серий:

  • Пилот (Pilot)
  • Название таблицы (The Cap Table)
  • Устав корпорации (Articles of Incorporation)
  • Доверенные Обязанности (Fiduciary Duties)
  • Сигнализации Риска (Signaling Risk)
  • Сторонний инсорсинг (Third Party Insourcing)
  • Доказательство концепции (Proof of Concept)
  • Оптимальная Эффективность Наконечника (Optimal Tip-To-Tip Efficiency)
--

MediaInfo:

Общее
Уникальный идентификатор                 : 248965510710448930483894517152797231979 (0xBB4D03625D9E84C487467A06B4E50B6B)
Полное имя                               : E:\_Сериалы\000\Кремниевая долина\Silicon Valley-1(BaibaKo)\Silicon.Valley.s01e01.HDTV720p.Rus.Eng.BaibaKo.tv.mkv
Формат                                   : Matroska
Версия формата                           : Version 4 / Version 2
Размер файла                             : 885 Мбайт
Продолжительность                        : 29 м.
Общий поток                              : 4233 Кбит/сек
Дата кодирования                         : UTC 2014-04-08 16:36:29
Программа кодирования                    : mkvmerge v6.7.0 ('Back to the Ground') 64bit built on Jan  8 2014 15:10:52
Библиотека кодирования                   : libebml v1.3.0 + libmatroska v1.4.1
Видео
Идентификатор                            : 1
Формат                                   : AVC
Формат/Информация                        : Advanced Video Codec
Профиль формата                          : [email protected]
Параметр CABAC формата                   : Да
Параметр ReFrames формата                : 5 кадров
Идентификатор кодека                     : V_MPEG4/ISO/AVC
Продолжительность                        : 29 м.
Битрейт                                  : 3380 Кбит/сек
Ширина                                   : 1280 пикселей
Высота                                   : 720 пикселей
Соотношение сторон                       : 16:9
Режим частоты кадров                     : Постоянный
Частота кадров                           : 23,976 кадра/сек
Цветовое пространство                    : YUV
Субдискретизация насыщенности            : 4:2:0
Битовая глубина                          : 8 бит
Тип развёртки                            : Прогрессивная
Бит/(Пиксели*Кадры)                      : 0.153
Размер потока                            : 707 Мбайт (80%)
Библиотека кодирования                   : x264 core 142 r2409 d6b4e63
Настройки программы                      : cabac=1 / ref=5 / deblock=1:0:0 / analyse=0x3:0x113 / me=umh / subme=8 / psy=1 / psy_rd=1.00:0.00 / mixed_ref=1 / me_range=16 / chroma_me=1 / trellis=1 / 8x8dct=1 / cqm=0 / deadzone=21,11 / fast_pskip=1 / chroma_qp_offset=-2 / threads=18 / lookahead_threads=3 / sliced_threads=0 / nr=0 / decimate=1 / interlaced=0 / bluray_compat=0 / constrained_intra=0 / bframes=3 / b_pyramid=2 / b_adapt=2 / b_bias=0 / direct=3 / weightb=1 / open_gop=0 / weightp=2 / keyint=250 / keyint_min=23 / scenecut=40 / intra_refresh=0 / rc_lookahead=50 / rc=crf / mbtree=1 / crf=18.0 / qcomp=0.60 / qpmin=0 / qpmax=69 / qpstep=4 / ip_ratio=1.40 / aq=1:1.00
Язык                                     : English
Default                                  : Да
Forced                                   : Нет
Коэффициенты матрицы                     : BT.709
Аудио #1
Идентификатор                            : 2
Формат                                   : AC-3
Формат/Информация                        : Audio Coding 3
Расширение режима                        : CM (complete main)
Параметр Endianness формата              : Big
Идентификатор кодека                     : A_AC3
Продолжительность                        : 29 м.
Вид битрейта                             : Постоянный
Битрейт                                  : 384 Кбит/сек
Каналы                                   : 6 каналов
Расположение каналов                     : Front: L C R, Side: L R, LFE
Частота                                  : 48,0 КГц
Битовая глубина                          : 16 бит
Метод сжатия                             : С потерями
Размер потока                            : 80,3 Мбайт (9%)
Язык                                     : Russian
Default                                  : Да
Forced                                   : Нет
Аудио #2
Идентификатор                            : 3
Формат                                   : AC-3
Формат/Информация                        : Audio Coding 3
Расширение режима                        : CM (complete main)
Параметр Endianness формата              : Big
Идентификатор кодека                     : A_AC3
Продолжительность                        : 29 м.
Вид битрейта                             : Постоянный
Битрейт                                  : 384 Кбит/сек
Каналы                                   : 6 каналов
Расположение каналов                     : Front: L C R, Side: L R, LFE
Частота                                  : 48,0 КГц
Битовая глубина                          : 16 бит
Метод сжатия                             : С потерями
Размер потока                            : 80,3 Мбайт (9%)
Язык                                     : English
Default                                  : Нет
Forced                                   : Нет
-Скриншоты:
-

Еще

-Добавлена восьмая, заключительная, серия первого сезона
Яндекс.Метрика
Рейтинг@Mail.ru