[ Сегодня на трекере фрилич! Идет свободное скачивание без начисления Download ]

В Москве всегда солнечно (Сезон 1, полный, 16 серий) (Сергей Сенцов, Александр Наумов) [2014 г., комедия, SATRip]

 

Создавать темы 06-Июн-2014 04:32

-В Москве всегда солнечно- Производство: Россия, Good Story Media по заказу ТНТ
Жанр: комедия
Год выпуска: 2014 г.
Продолжительность: ~00:24:00
Российская премьера: 12 мая 2014-Режиссер: Сергей Сенцов, Александр Наумов
В ролях: Константин Крюков, Александр Головко, Ингрид Олеринская, Александра Ребенок, Иван Куприенко, Павел Абраменков, Дмитрий Астрахан, Евгений Гончаров-Описание: Крепкая дружба, настоящая любовь, преданность идеалам, благородство и достоинство, скромность и доброта — все это не имеет никакого отношения к героям сериала «В Москве всегда солнечно». Четверо молодых героев: Сергей и Алена Ковалевы, Максим Борисенко и Роман Макаров. Они вместе учились в школе. У них есть свой бизнес — пивной бар «Филадельфия». Но доходов он почти не приносит. Все их планы и надежды — любовные и денежные — рушатся, сталкиваясь с реальностью. Причина этому — их эгоизм, лень и глупость.
И только природная жизнерадостность вместе с уже отмеченной глупостью помогают им сохранять оптимизм и не предаваться унынию.- -Качество видео: SATRip
Контейнер: AVI
Видео кодек: XviD
Аудио кодек: MP3
Видео: 720x400 (1.80:1), 25 fps, XviD build 50 ~1790 kbps avg, 0.25 bit/pixel
Аудио: 48 kHz, MPEG Layer 3, 1 ch, ~128.00 kbps avg
Cубтитры: отсутствуют

Media Info

General
Complete name : D:\В Москве всегда солнечно (2014) SATRip\Серия 1.avi
Format : AVI
Format/Info : Audio Video Interleave
File size : 314 MiB
Duration : 22mn 45s
Overall bit rate : 1 928 Kbps
Writing application : VirtualDubMod 1.5.10.3 | www.virtualdub-fr.org || (build 2550/release)
Writing library : VirtualDubMod build 2550/release
Video
ID : 0
Format : MPEG-4 Visual
Format profile : Advanced [email protected]
Format settings, BVOP : 2
Format settings, QPel : No
Format settings, GMC : No warppoints
Format settings, Matrix : Default (MPEG)
Codec ID : XVID
Codec ID/Hint : XviD
Duration : 22mn 45s
Bit rate : 1 791 Kbps
Width : 720 pixels
Height : 400 pixels
Display aspect ratio : 16:9
Frame rate : 25.000 fps
Color space : YUV
Chroma subsampling : 4:2:0
Bit depth : 8 bits
Scan type : Progressive
Compression mode : Lossy
Bits/(Pixel*Frame) : 0.249
Stream size : 291 MiB (93%)
Writing library : XviD 1.2.1 (UTC 2008-12-04)
Audio
ID : 1
Format : MPEG Audio
Format version : Version 1
Format profile : Layer 3
Codec ID : 55
Codec ID/Hint : MP3
Duration : 22mn 45s
Bit rate mode : Constant
Bit rate : 128 Kbps
Channel(s) : 1 channel
Sampling rate : 48.0 KHz
Compression mode : Lossy
Stream size : 20.8 MiB (7%)
Alignment : Aligned on interleaves
Interleave, duration : 40 ms (1.00 video frame)
Interleave, preload duration : 504 ms
Writing library : LAME3.99r
Encoding settings : -m m -V 4 -q 2 -lowpass 20.5 -b 128

Скриншоты

Внимание! Раздача ведётся путём добавления новых серий!

при каждом добавлении создётся новый торрент. Чтобы начать докачку новой серии, пользователям необходимо сделать следующее:
(1) остановить скачивание,
(2) удалить старый торрент у себя из клиента (старые серии удалять не надо),
(3) скачать новый торрент и запустить его у себя в клиенте, при этом указать клиенту путь в старую папку куда и должно происходить скачивание новых серий.
Ваш клиент при этом должен произвести хеширование (проверку) старой папки и будет докачивать только те серии которых у вас ещё нет. Старые серии при этом не удаляются, а продолжают раздаваться!
Eсли вы уже удалили старые серии, то предотвратить повторную закачку старых серий можно, отжав галочку в соответствующих местах при запуске нового торрента. (по возможности, желательно не удалять старые серии как можно дольше чтобы релизёр не столько продолжал раздавать старые серии, а смог сконцентрироваться на новых)
Добавлена 16, заключительная, серия первого сезона
Яндекс.Метрика
Рейтинг@Mail.ru