[ Сегодня на трекере фрилич! Идет свободное скачивание без начисления Download ]

Старик / Шал / Shal (Ермек Турсунов / Ermek Tursynov) [2012 г., Драма, HDRip] VO (Лицензия)

 

Создавать темы 06-Июн-2014 04:30

-Старик / Шал / Shal- Производство: Казахстан, Kazakhfilm Studios
Год выпуска: 2012 г.
Жанр: Драма
Продолжительность: 01:41:56
Мировая премьера: 11 октября 2012
Перевод: Профессиональный (одноголосый, закадровый) [Лицензия]-Режиссер: Ермек Турсунов / Ermek Tursynov
В ролях: Ерболат Тогузаков, Орынбек Молдахан, Исбек Абильмажинов, Ондас Бесикбасов, Ержан Бесикбасов, Ержан Нусипакынов, Олег Полторацких, Диана Мукушева, Аман Малдыбаев, Игорь Горшков-Описание: Небольшая семья — старик, невестка и внук — ведет обычную и ничем непримечательную жизнь в далекой степи. Им нельзя ссориться, хотя их общение весьма ограничено. Им нужно уметь прощать и быть прозорливыми, чтобы не расплескать по дороге важные истины. Им важно жить по-людски и важно, чтобы старик успел передать своему внуку главные ценности этой жизни.
Великая степная мораль о необходимости делать добро и не ждать в ответ благодарности, о неспешном и несуетном течении времени без жажды наживы и богатств, о неприхотливости и самодостаточности, о неразрывной связи с легендарным кочевым прошлым нынешних ее наследников…- -Качество видео: HDRip
Контейнер: AVI
Видео кодек: XviD
Аудио кодек: AC3
Видео: 720x400 (1.80:1), 25 fps, ~1532 kbps avg, 0.21 bit/pixel
Аудио: 48 kHz, AC3 Dolby Digital, 2/0 (L,R) ch, ~384 kbps
Cубтитры: отсутствуют

Media Info

General
Complete name : D:\Shal.2012.HDRip.avi
Format : AVI
Format/Info : Audio Video Interleave
Format profile : OpenDML
File size : 1.37 GiB
Duration : 1h 41mn
Overall bit rate : 1 923 Kbps
Writing application : Lavf51.12.1
Video
ID : 0
Format : MPEG-4 Visual
Format profile : [email protected]
Format settings, BVOP : No
Format settings, QPel : No
Format settings, GMC : No warppoints
Format settings, Matrix : Default (H.263)
Codec ID : FMP4
Duration : 1h 41mn
Bit rate : 1 527 Kbps
Width : 720 pixels
Height : 400 pixels
Display aspect ratio : 16:9
Frame rate : 25.000 fps
Color space : YUV
Chroma subsampling : 4:2:0
Bit depth : 8 bits
Scan type : Progressive
Compression mode : Lossy
Bits/(Pixel*Frame) : 0.212
Stream size : 1.09 GiB (79%)
Writing library : Lavc51.40.4
Audio
ID : 1
Format : AC-3
Format/Info : Audio Coding 3
Mode extension : CM (complete main)
Format settings, Endianness : Big
Codec ID : 2000
Duration : 1h 41mn
Bit rate mode : Constant
Bit rate : 384 Kbps
Channel(s) : 2 channels
Channel positions : Front: L R
Sampling rate : 48.0 KHz
Bit depth : 16 bits
Compression mode : Lossy
Stream size : 280 MiB (20%)
Alignment : Aligned on interleaves
Interleave, duration : 32 ms (0.80 video frame)
Interleave, preload duration : 32 ms

Скриншоты

Яндекс.Метрика
Рейтинг@Mail.ru