ПМС-коп / PMS Cop (Брайон Блейки / Bryon Blakey) [2014 г., Ужасы, WEB-DL] DVO (DaeadSno & den904)

 

Создавать темы 06-Июн-2014 04:26

-ПМС-коп / PMS Cop- Производство: США, Bryon Blakey Pictures
Год выпуска: 2014 г.
Жанр: Ужасы
Продолжительность: 01:31:13
Мировая премьера: 21 февраля 2014
Перевод: Любительский (двухголосый, закадровый) [DaeadSno & den904]-Режиссер: Брайон Блейки / Bryon Blakey
В ролях: Синди Минс, Хизер Холл, Лей Ренникс, Мики Стоун, Илэйн Дженкинс, Меган Дихарт, Дэвид Джи. Ли, Рэйчел, Эдлоув, Кристин Мавербо, Джэйсон Кэри-Описание: Мэри Коллинс — молодая девушка-полицейская, которая страдает от ПМС и проявляет излишнюю жестокость при арестах. Начальство даже ее отправило к психиатру, где ей прописали таблетки, которые все только ухудшили…- -Качество видео: WEB-DL
Контейнер: AVI
Видео кодек: XviD
Аудио кодек: AC3
Видео: 720x400 (1.80:1), 24.000 fps, XviD build 73 ~2041 kbps avg, 0.29 bit/pixel
Аудио: 48 kHz, AC3 Dolby Digital, 2/0 (L,R) ch, ~192 kbps
Cубтитры: отсутствуют

Media Info

General
Complete name : D:\PMS.Cop.2014.L2.WEBDLRip.avi
Format : AVI
Format/Info : Audio Video Interleave
File size : 1.43 GiB
Duration : 1h 31mn
Overall bit rate : 2 243 Kbps
Writing application : VirtualDubMod 1.5.10.3 | www.virtualdub-fr.org || (build 2550/release)
Writing library : VirtualDubMod build 2550/release
Video
ID : 0
Format : MPEG-4 Visual
Format profile : Advanced [email protected]
Format settings, BVOP : 1
Format settings, QPel : No
Format settings, GMC : No warppoints
Format settings, Matrix : Custom
Codec ID : XVID
Codec ID/Hint : XviD
Duration : 1h 31mn
Bit rate : 2 042 Kbps
Width : 720 pixels
Height : 400 pixels
Display aspect ratio : 16:9
Frame rate : 24.000 fps
Color space : YUV
Chroma subsampling : 4:2:0
Bit depth : 8 bits
Scan type : Progressive
Compression mode : Lossy
Bits/(Pixel*Frame) : 0.295
Stream size : 1.30 GiB (91%)
Writing library : XviD 73
Audio
ID : 1
Format : AC-3
Format/Info : Audio Coding 3
Mode extension : CM (complete main)
Format settings, Endianness : Big
Codec ID : 2000
Duration : 1h 31mn
Bit rate mode : Constant
Bit rate : 192 Kbps
Channel(s) : 2 channels
Channel positions : Front: L R
Sampling rate : 48.0 KHz
Bit depth : 16 bits
Compression mode : Lossy
Stream size : 125 MiB (9%)
Alignment : Split accross interleaves
Interleave, duration : 42 ms (1.00 video frame)
Interleave, preload duration : 500 ms

Скриншоты

Яндекс.Метрика
Рейтинг@Mail.ru