[ Сегодня на трекере фрилич! Идет свободное скачивание без начисления Download ]

Отель «Гранд Будапешт» / The Grand Budapest Hotel (Уэс Андерсон / Wes Anderson) [2014 г., Комедия, детектив, приключения, криминал, HDRip-AVC] Dub (Лицензия) «Двадцатый Век Фокс СНГ»

 

Создавать темы 06-Июн-2014 04:23

-Отель «Гранд Будапешт» / The Grand Budapest Hotel-- Производство: Великобритания, Германия, Scott Rudin Productions, Indian Paintbrush, Studio Babelsberg
Год выпуска: 2014 г.
Жанр: Комедия, детектив, приключения, криминал
Продолжительность: 01:39:54
Мировая премьера: 6 февраля 2014
Российская премьера: 13 марта 2014, «Двадцатый Век Фокс СНГ»
Дата выхода DVD: 10 июля 2014, «Двадцатый Век Фокс СНГ»
Дата выхода Blu-Ray: 10 июля 2014, «Двадцатый Век Фокс СНГ»
Перевод: Профессиональный (полное дублирование) [Лицензия]
Режиссер: Уэс Андерсон / Wes Anderson-В ролях: Рэйф Файнс, Тони Револори, Сирша Ронан, Эдриан Броуди, Уиллем Дефо, Ф. Мюррэй Абрахам, Джуд Лоу, Эдвард Нортон, Джефф Голдблюм, Харви Кейтель-Описание: Фильм рассказывает об увлекательных приключениях легендарного консьержа Густава и его юного друга, портье Зеро Мустафы. Сотрудники гостиницы становятся свидетелями кражи и поисков бесценных картин эпохи Возрождения, борьбы за огромное состояние богатой семьи и… драматических изменений в Европе между двумя кровопролитными войнами XX века.-
Качество видео: HDRip-AVC
Контейнер: MKV
Видео кодек: H 264
Аудио кодек: AC3
Видео: AVC, 720x384 (1.88:1), 23.976 fps, 1509 kbps avg, 0.228 bit/pixel
Аудио: 48 kHz, AC 3, 6 ch, ~448 kbps avg Dub (Лицензия)
Cубтитры: отсутствуют

Media Info

General
Complete name : W:\Otel.Grand.Budapesht.2014.D.HDRip.x264.Rus.C!v.mkv
Format : Matroska
File size : 1.36 GiB
Duration : 1h 39mn
Overall bit rate : 1 953 Kbps
Encoded date : UTC 2014-06-05 14:36:15
Writing application : mkvmerge v6.5.0 ('Isn't she lovely') built on Oct 20 2013 12:50:05
Writing library : libebml v1.3.0 + libmatroska v1.4.1
Video
ID : 1
Format : AVC
Format/Info : Advanced Video Codec
Format profile : [email protected]
Format settings, CABAC : Yes
Format settings, ReFrames : 9 frames
Muxing mode : Container [email protected]
Codec ID : V_MPEG4/ISO/AVC
Duration : 1h 39mn
Bit rate : 1 509 Kbps
Width : 720 pixels
Height : 384 pixels
Display aspect ratio : 1.875
Frame rate : 23.976 fps
Color space : YUV
Chroma subsampling : 4:2:0
Bit depth : 8 bits
Scan type : Progressive
Bits/(Pixel*Frame) : 0.228
Stream size : 1.02 GiB (75%)
Writing library : x264 core 138 r2358 9e941d1
Encoding settings : cabac=1 / ref=9 / deblock=1:-3:-3 / analyse=0x3:0x133 / me=umh / subme=7 / psy=1 / psy_rd=1.00:0.15 / mixed_ref=1 / me_range=32 / chroma_me=1 / trellis=1 / 8x8dct=1 / cqm=0 / deadzone=21,11 / fast_pskip=1 / chroma_qp_offset=-3 / threads=12 / lookahead_threads=2 / sliced_threads=0 / nr=0 / decimate=1 / interlaced=0 / bluray_compat=0 / constrained_intra=0 / bframes=6 / b_pyramid=2 / b_adapt=1 / b_bias=0 / direct=1 / weightb=1 / open_gop=0 / weightp=2 / keyint=240 / keyint_min=23 / scenecut=40 / intra_refresh=0 / rc_lookahead=40 / rc=2pass / mbtree=1 / bitrate=1509 / ratetol=1.0 / qcomp=0.60 / qpmin=0 / qpmax=69 / qpstep=4 / cplxblur=20.0 / qblur=0.5 / vbv_maxrate=62500 / vbv_bufsize=78125 / nal_hrd=none / ip_ratio=1.40 / aq=1:1.00
Audio
ID : 2
Format : AC-3
Format/Info : Audio Coding 3
Mode extension : CM (complete main)
Codec ID : A_AC3
Duration : 1h 39mn
Bit rate mode : Constant
Bit rate : 448 Kbps
Channel(s) : 6 channels
Channel positions : Front: L C R, Side: L R, LFE
Sampling rate : 48.0 KHz
Bit depth : 16 bits
Stream size : 320 MiB (23%)
Title : BluRay CEE
Language : Russian

Скриншоты

Яндекс.Метрика
Рейтинг@Mail.ru