[ Сегодня на трекере фрилич! Идет свободное скачивание без начисления Download ]

Полицейская история 2013 / Police story (Jing cha gu shi 2013) (Дин Шэн / Ding Sheng) [2013 г., криминал, драма, триллер, боевик, BDRip-AVC] AVO (Визгунов, Дольский) + original (Chi)

 

Создавать темы 06-Июн-2014 04:20

Полицейская история 2013 / Police story (Jing cha gu shi 2013)
Год выпуска: 2013
Производство: Китай, Гонконг / China Vision Group, Wanda Media Co.
Жанр: криминал, драма, триллер, боевик
Продолжительность: 01:50:07
Перевод: Авторский (одноголосый, закадровый) Визгунов, Дольский
Оригинальный аудиопоток: китайский
Режиссер: Дин Шэн / Ding Sheng
В ролях: Джеки Чан, Лю Е, Тянь Цзин, Бо Хуан, Юй Жун Гуан, Александр Байли, Макс Хуан, Джеймс Лоджа, Андреас Нгуйен
Описание: История начинается с того, что посетители паба оказываются взятыми в заложники. Среди посетителей есть офицер полиции Вэнь Чжун и его непослушная дочь Мяомяо. Человек, удерживающий всех в заложниках — владелец паба, который таким образом пытается добиться освобождения из тюрьмы одного преступника…

Сэмпл ,
Качество видео: BDRip-AVC
Контейнер: MKV
Видео кодек: H.264
Аудио кодек: AC3
Видео: 3000 Kbps, 1040*442 pixels, 2.35:1, 24.000 fps, (Aspect ratio error: 0:00%)
Аудио : AC3, 384 Kbps, 6 channels, 48.0 KHz, 16 bits - Визгунов
Аудио #2: AC3, 384 Kbps, 6 channels, 48.0 KHz, 16 bits - Дольский
Аудио #3: AC3, 384 Kbps, 6 channels, 48.0 KHz, 16 bits - Chi

Доп. информация

Перевод С.Визгунова и А.Дольского выполнен спонсорами ресурса e180.

Media Info

C:\Users\LEHA\Desktop\Полицейская история 2013. BDRip-AVC.mkv
General
Unique ID : 195889578093651914556237025503458774652 (0x935EF5DE5F852453B517804C1FCE4E7C)
Complete name : C:\Users\LEHA\Desktop\Полицейская история 2013. BDRip-AVC.mkv
Format : Matroska
Format version : Version 2
File size : 3.18 GiB
Duration : 1h 49mn
Overall bit rate : 4 151 Kbps
Encoded date : UTC 2014-06-05 16:38:33
Writing application : mkvmerge v5.8.0 ('No Sleep / Pillow') built on Sep 2 2012 15:37:04
Writing library : libebml v1.2.3 + libmatroska v1.3.0
Video #1
ID : 1
Format : AVC
Format/Info : Advanced Video Codec
Format profile : [email protected]
Format settings, CABAC : Yes
Format settings, ReFrames : 16 frames
Muxing mode : Header stripping
Codec ID : V_MPEG4/ISO/AVC
Duration : 1h 49mn
Bit rate : 3 000 Kbps
Width : 1 040 pixels
Height : 442 pixels
Display aspect ratio : 2.35:1
Frame rate : 24.000 fps
Color space : YUV
Chroma subsampling : 4:2:0
Bit depth : 8 bits
Scan type : Progressive
Bits/(Pixel*Frame) : 0.272
Stream size : 2.24 GiB (70%)
Writing library : x264 core 125 r2208 d9d2288
Encoding settings : cabac=1 / ref=16 / deblock=1:-1:-1 / analyse=0x3:0x133 / me=umh / subme=11 / psy=1 / psy_rd=1.00:0.15 / mixed_ref=1 / me_range=32 / chroma_me=1 / trellis=2 / 8x8dct=1 / cqm=0 / deadzone=21,11 / fast_pskip=1 / chroma_qp_offset=-3 / threads=12 / lookahead_threads=2 / sliced_threads=0 / nr=0 / decimate=1 / interlaced=0 / bluray_compat=0 / constrained_intra=0 / bframes=8 / b_pyramid=2 / b_adapt=2 / b_bias=0 / direct=3 / weightb=1 / open_gop=0 / weightp=2 / keyint=250 / keyint_min=24 / scenecut=40 / intra_refresh=0 / rc_lookahead=60 / rc=2pass / mbtree=1 / bitrate=3000 / ratetol=1.0 / qcomp=0.60 / qpmin=0 / qpmax=69 / qpstep=4 / cplxblur=20.0 / qblur=0.5 / ip_ratio=1.40 / aq=1:1.00
Audio #2
ID : 2
Format : AC-3
Format/Info : Audio Coding 3
Mode extension : CM (complete main)
Muxing mode : Header stripping
Codec ID : A_AC3
Duration : 1h 49mn
Bit rate mode : Constant
Bit rate : 384 Kbps
Channel(s) : 6 channels
Channel positions : Front: L C R, Side: L R, LFE
Sampling rate : 48.0 KHz
Bit depth : 16 bits
Compression mode : Lossy
Stream size : 302 MiB (9%)
Title : Визгунов
Language : Russian
Audio #3
ID : 3
Format : AC-3
Format/Info : Audio Coding 3
Mode extension : CM (complete main)
Muxing mode : Header stripping
Codec ID : A_AC3
Duration : 1h 49mn
Bit rate mode : Constant
Bit rate : 384 Kbps
Channel(s) : 6 channels
Channel positions : Front: L C R, Side: L R, LFE
Sampling rate : 48.0 KHz
Bit depth : 16 bits
Compression mode : Lossy
Stream size : 302 MiB (9%)
Title : Дольский
Language : Russian
Audio #4
ID : 4
Format : AC-3
Format/Info : Audio Coding 3
Mode extension : CM (complete main)
Muxing mode : Header stripping
Codec ID : A_AC3
Duration : 1h 49mn
Bit rate mode : Constant
Bit rate : 384 Kbps
Channel(s) : 6 channels
Channel positions : Front: L C R, Side: L R, LFE
Sampling rate : 48.0 KHz
Bit depth : 16 bits
Compression mode : Lossy
Stream size : 302 MiB (9%)
Title : chi
Language : Chinese

log x.264

x264 [info]: frame I:2473  Avg QP:15.01  size: 85726
x264 [info]: frame P:40608 Avg QP:18.75 size: 28854
x264 [info]: frame B:115081 Avg QP:20.99 size: 9440
x264 [info]: consecutive B-frames: 4.8% 5.6% 11.5% 30.1% 19.0% 18.5% 6.1% 1.8% 2.5%
x264 [info]: mb I I16..4: 11.8% 56.3% 31.9%
x264 [info]: mb P I16..4: 2.2% 15.4% 3.6% P16..4: 27.1% 31.4% 11.1% 2.8% 0.4% skip: 6.0%
x264 [info]: mb B I16..4: 0.4% 2.1% 0.4% B16..8: 35.9% 20.8% 3.5% direct: 7.3% skip:29.6% L0:42.5% L1:44.8% BI:12.8%
x264 [info]: 8x8 transform intra:69.9% inter:61.1%
x264 [info]: direct mvs spatial:98.6% temporal:1.4%
x264 [info]: coded y,uvDC,uvAC intra: 84.2% 87.3% 70.6% inter: 29.8% 31.8% 8.4%
x264 [info]: i16 v,h,dc,p: 43% 12% 10% 35%
x264 [info]: i8 v,h,dc,ddl,ddr,vr,hd,vl,hu: 10% 9% 8% 9% 13% 12% 13% 12% 14%
x264 [info]: i4 v,h,dc,ddl,ddr,vr,hd,vl,hu: 14% 10% 6% 8% 14% 12% 12% 11% 12%
x264 [info]: i8c dc,h,v,p: 42% 23% 19% 16%
x264 [info]: Weighted P-Frames: Y:7.3% UV:4.4%
x264 [info]: ref P L0: 51.4% 12.0% 15.5% 5.8% 4.0% 2.8% 2.2% 1.3% 1.1% 0.8% 0.7% 0.6% 0.6% 0.5% 0.5% 0.4%
x264 [info]: ref B L0: 79.4% 9.9% 4.1% 1.9% 1.3% 0.9% 0.8% 0.4% 0.4% 0.3% 0.2% 0.2% 0.2% 0.1% 0.1%
x264 [info]: ref B L1: 93.7% 6.3%
x264 [info]: kb/s:2998.57

Скриншоты

Яндекс.Метрика
Рейтинг@Mail.ru